<?xml version="1.0" standalone="no"?>
<!DOCTYPE svg PUBLIC "-//W3C//DTD SVG 1.1//EN" "http://www.w3.org/Graphics/SVG/1.1/DTD/svg11.dtd" >
<svg xmlns="http://www.w3.org/2000/svg" xmlns:xlink="http://www.w3.org/1999/xlink" version="1.1">
<metadata>
Created by FontForge 20190801 at Wed May 16 11:26:55 2012
 By Jimmy Wärting
Copyright (c) 2012 by James T. Edmondson. All rights reserved.
</metadata>
<defs>
<font id="Edmondsans-Bold" horiz-adv-x="0" >
  <font-face 
    font-family="Edmondsans Bold"
    font-weight="420"
    font-stretch="normal"
    units-per-em="1000"
    panose-1="2 0 0 0 0 0 0 0 0 0"
    ascent="750"
    descent="-250"
    x-height="488"
    cap-height="700"
    bbox="-120 -317 1047 959"
    underline-thickness="50"
    underline-position="-100"
    unicode-range="U+0020-FB02"
  />
<missing-glyph horiz-adv-x="334" 
 />
    <glyph glyph-name="fi" unicode="fi" horiz-adv-x="566" 
d="M324 364h-103v-364h-142v364h-70v124h70v88q0 85 52 135.5t128 50.5q50 0 89 -17l-46 -119q-14 8 -31 8q-50 0 -50 -68v-78h103v-124zM519 0h-143v488h143v-488zM357 639q0 37 27.5 64.5t64.5 27.5t64.5 -27.5t27.5 -64.5t-27.5 -64.5t-64.5 -27.5t-64.5 27.5t-27.5 64.5
z" />
    <glyph glyph-name="fl" unicode="fl" horiz-adv-x="630" 
d="M335 364h-103v-364h-142v364h-70v124h70v88q0 85 52 135.5t128 50.5q50 0 89 -17l-46 -119q-14 8 -31 8q-50 0 -50 -68v-78h103v-124zM566 0h-142v750h142v-750z" />
    <glyph glyph-name=".notdef" horiz-adv-x="334" 
 />
    <glyph glyph-name=".null" 
 />
    <glyph glyph-name="nonmarkingreturn" horiz-adv-x="333" 
 />
    <glyph glyph-name="space" unicode=" " horiz-adv-x="300" 
 />
    <glyph glyph-name="exclam" unicode="!" horiz-adv-x="267" 
d="M197 245h-129l-5 455h138zM42 83q0 37 27 64.5t65 27.5t65 -27.5t27 -64.5t-27 -64.5t-65 -27.5t-65 27.5t-27 64.5z" />
    <glyph glyph-name="quotedbl" unicode="&#x22;" horiz-adv-x="261" 
d="M114 529h-97l-6 171h109zM244 529h-97l-6 171h109z" />
    <glyph glyph-name="numbersign" unicode="#" horiz-adv-x="595" 
d="M244 0h-108v198h-120v108h120v110h-120v108h120v176h108v-176h107v176h108v-176h119v-108h-119v-110h119v-108h-119v-198h-108v198h-107v-198zM244 416v-110h107v110h-107z" />
    <glyph glyph-name="dollar" unicode="$" horiz-adv-x="501" 
d="M194 -76v72q-124 22 -178 129l115 82q43 -84 123 -84q34 0 56 21t22 53q0 28 -28 55.5t-67.5 53t-79 55t-67.5 73.5t-28 96q0 63 38.5 110t98.5 63v77h112v-78q71 -20 114 -85l-96 -85q-32 48 -72 48q-22 0 -36.5 -14.5t-14.5 -36.5q0 -20 20 -41.5t50 -39.5t64.5 -43.5
t64.5 -52t50 -67t20 -86.5q0 -77 -46.5 -132t-122.5 -70v-73h-112z" />
    <glyph glyph-name="percent" unicode="%" horiz-adv-x="762" 
d="M206 0h-137l479 700h137zM178 392q-65 0 -110.5 45.5t-45.5 110.5q0 66 45.5 111.5t110.5 45.5t110.5 -45.5t45.5 -111.5q0 -65 -45.5 -110.5t-110.5 -45.5zM178 490q24 0 41.5 17t17.5 41q0 25 -17.5 42t-41.5 17q-25 0 -42 -17t-17 -42q0 -24 17 -41t42 -17zM578 -5
q-65 0 -110.5 45.5t-45.5 110.5t45.5 110.5t110.5 45.5t110.5 -45.5t45.5 -110.5t-45.5 -110.5t-110.5 -45.5zM578 92q24 0 41.5 17t17.5 42q0 24 -17.5 41.5t-41.5 17.5q-25 0 -42 -17.5t-17 -41.5q0 -25 17 -42t42 -17z" />
    <glyph glyph-name="ampersand" unicode="&#x26;" horiz-adv-x="617" 
d="M570 407q-12 -114 -66 -214l96 -117l-111 -86l-72 90q-90 -90 -181 -90q-95 0 -161.5 58t-66.5 154q0 68 40.5 115t108.5 86l-2 4q-51 65 -51 143q0 66 46 113t129 47q77 0 120 -45.5t43 -107.5q0 -52 -27 -89.5t-76 -71.5l81 -99q12 48 20 110h130zM239 118q59 0 108 48
l-125 156q-76 -55 -76 -116q0 -40 27.5 -64t65.5 -24zM239 554q0 -34 36 -80q37 34 37 79q0 40 -35 40q-17 0 -27.5 -11.5t-10.5 -27.5z" />
    <glyph glyph-name="quotesingle" unicode="'" horiz-adv-x="149" 
d="M123 529h-97l-6 171h109z" />
    <glyph glyph-name="parenleft" unicode="(" horiz-adv-x="293" 
d="M164 748l110 -59q-107 -134 -106 -338t106 -340l-109 -54q-93 106 -127 253.5t-0.5 293t126.5 244.5z" />
    <glyph glyph-name="parenright" unicode=")" horiz-adv-x="293" 
d="M129 748q93 -99 126.5 -244.5t-0.5 -293t-127 -253.5l-109 54q105 136 106 340t-106 338z" />
    <glyph glyph-name="asterisk" unicode="*" horiz-adv-x="352" 
d="M132 642l-3 83h93q-1 -14 -2 -41.5t-2 -41.5q12 8 35 23t35 23q7 -13 21.5 -40t22.5 -40l-70 -38q59 -31 70 -37l-43 -80l-72 45l5 -83h-93l4 83l-71 -45q-5 8 -20 36.5t-24 43.5l71 37l-70 38q7 13 21.5 40t22.5 40z" />
    <glyph glyph-name="plus" unicode="+" horiz-adv-x="443" 
d="M40 326v108h127v128h108v-128h128v-108h-128v-127h-108v127h-127z" />
    <glyph glyph-name="comma" unicode="," horiz-adv-x="279" 
d="M130 -3q-40 4 -64 27.5t-24 60.5q0 35 26.5 62.5t66.5 27.5q49 0 75.5 -33.5t26.5 -86.5q0 -61 -38.5 -116.5t-98.5 -75.5q-26 46 -38 69q13 7 23.5 14.5t18 15.5t12 13.5t9 13t5.5 8.5z" />
    <glyph glyph-name="hyphen" unicode="-" horiz-adv-x="323" 
d="M283 226h-243v108h243v-108z" />
    <glyph glyph-name="period" unicode="." horiz-adv-x="268" 
d="M42 83q0 37 27 64.5t65 27.5t65 -27.5t27 -64.5t-27 -64.5t-65 -27.5t-65 27.5t-27 64.5z" />
    <glyph glyph-name="slash" unicode="/" horiz-adv-x="392" 
d="M-19 -100l280 900h148l-280 -900h-148z" />
    <glyph glyph-name="zero" unicode="0" horiz-adv-x="677" 
d="M34 351q0 160 80.5 259.5t224.5 99.5t224 -99t80 -260q0 -158 -80.5 -259t-223.5 -101q-144 0 -224.5 101t-80.5 259zM175 351q0 -101 43 -164t121 -63t120.5 63.5t42.5 163.5t-42 162t-121 62t-121.5 -62t-42.5 -162z" />
    <glyph glyph-name="one" unicode="1" horiz-adv-x="433" 
d="M393 0h-323v130h90v415l-67 -35l-54 116l154 74h109v-570h91v-130z" />
    <glyph glyph-name="two" unicode="2" horiz-adv-x="572" 
d="M518 0h-464v114q13 8 34 23t74.5 59t95 86.5t75 99.5t33.5 104q0 41 -22 66.5t-55 25.5q-55 0 -73.5 -50t4.5 -108l-133 -40q-23 43 -23 103q0 100 65.5 163.5t163.5 63.5q97 0 158 -56t61 -157q0 -175 -223 -363q18 2 40 2h189v-136z" />
    <glyph glyph-name="three" unicode="3" horiz-adv-x="559" 
d="M275 -10q-105 0 -167 46t-74 101l119 56q11 -30 40.5 -53.5t74.5 -23.5q47 0 75 29.5t28 74.5t-30.5 71.5t-83.5 26.5h-21v110q40 0 67.5 22t27.5 64q0 29 -17.5 48t-42.5 19t-42 -19t-17 -51h-139q0 95 60 147.5t142 52.5q79 0 137 -47.5t58 -131.5q0 -98 -72 -145
q60 -19 88.5 -67t28.5 -103q0 -101 -67 -164t-173 -63z" />
    <glyph glyph-name="four" unicode="4" horiz-adv-x="558" 
d="M433 0h-143v145h-270v108l296 447h117v-432h85v-123h-85v-145zM167 268h123v183z" />
    <glyph glyph-name="five" unicode="5" horiz-adv-x="611" 
d="M487 570h-261v-107q38 16 88 16q120 0 183.5 -70t63.5 -168q0 -104 -68 -177.5t-189 -73.5q-111 0 -179 51.5t-85 120.5l123 54q14 -37 50 -66t85 -29q56 0 87 36t31 86q0 49 -30.5 85.5t-85.5 36.5q-64 0 -94 -46l-108 61v320h389v-130z" />
    <glyph glyph-name="six" unicode="6" horiz-adv-x="583" 
d="M297 115q53 0 84.5 38.5t31.5 91.5t-30.5 89.5t-84.5 36.5q-55 0 -87 -37.5t-32 -90.5t31.5 -90.5t86.5 -37.5zM299 -9q-119 0 -187 81.5t-68 208.5q0 154 80.5 273.5t243.5 161.5l42 -116q-44 -11 -82 -32t-60 -43t-38 -43t-22 -34l-6 -13l2 -2q51 47 130 47
q99 0 159.5 -67.5t60.5 -165.5q0 -108 -70.5 -182t-184.5 -74z" />
    <glyph glyph-name="seven" unicode="7" horiz-adv-x="490" 
d="M300 0h-148q0 170 48.5 316.5t108.5 247.5h-275v136h424v-111q-7 -10 -18 -29.5t-39.5 -81.5t-50 -127t-37.5 -161t-13 -190z" />
    <glyph glyph-name="eight" unicode="8" horiz-adv-x="603" 
d="M302 -10q-119 0 -183.5 62.5t-64.5 149.5q0 54 29 107t93 82q-74 46 -74 138q0 74 52 127.5t148 53.5q95 0 147.5 -53.5t52.5 -126.5q0 -93 -72 -139q63 -29 91 -81.5t28 -106.5q0 -87 -64.5 -150t-182.5 -63zM302 112q49 0 76.5 29.5t27.5 74.5t-27.5 77t-76.5 32
t-77.5 -32t-28.5 -77t28 -74.5t78 -29.5zM302 439q34 0 51 23t17 59q0 33 -18.5 55t-49.5 22q-33 0 -51.5 -22t-18.5 -55q0 -36 18 -59t52 -23z" />
    <glyph glyph-name="nine" unicode="9" horiz-adv-x="608" 
d="M301 592q-53 0 -84.5 -38.5t-31.5 -91.5q0 -52 30.5 -89t84.5 -37q55 0 87 37.5t32 90.5t-31.5 90.5t-86.5 37.5zM299 716q119 0 187 -81.5t68 -208.5q0 -154 -80.5 -273.5t-243.5 -161.5l-42 116q44 11 82 32t60 43t38 43t22 34l6 13l-2 2q-51 -47 -130 -47
q-99 0 -159.5 67.5t-60.5 165.5q0 108 70.5 182t184.5 74z" />
    <glyph glyph-name="colon" unicode=":" horiz-adv-x="267" 
d="M42 375q0 37 27 64.5t65 27.5t65 -27.5t27 -64.5t-27 -64.5t-65 -27.5t-65 27.5t-27 64.5zM42 83q0 37 27 64.5t65 27.5t65 -27.5t27 -64.5t-27 -64.5t-65 -27.5t-65 27.5t-27 64.5z" />
    <glyph glyph-name="semicolon" unicode=";" horiz-adv-x="248" 
d="M124 6q-36 4 -58 25.5t-22 54.5q0 32 24.5 57t60.5 25q45 0 69 -30.5t24 -78.5q0 -55 -35 -106t-90 -69q-24 42 -35 63q12 6 21.5 13t16.5 14.5t11 12t9 11.5zM42 375q0 37 27 64.5t65 27.5t65 -27.5t27 -64.5t-27 -64.5t-65 -27.5t-65 27.5t-27 64.5z" />
    <glyph glyph-name="less" unicode="&#x3c;" horiz-adv-x="334" 
d="M310 241l-76 -76l-214 214l214 213l76 -75l-139 -138z" />
    <glyph glyph-name="equal" unicode="=" horiz-adv-x="430" 
d="M370 241h-310v108h310v-108zM370 411h-310v108h310v-108z" />
    <glyph glyph-name="greater" unicode="&#x3e;" horiz-adv-x="332" 
d="M99 165l-76 76l139 138l-139 138l76 75l214 -213z" />
    <glyph glyph-name="question" unicode="?" horiz-adv-x="459" 
d="M282 206h-134q-9 36 -1 67t25 52t39.5 43t42 40t33.5 43t14 52q0 33 -18.5 54t-52.5 21q-43 0 -62 -36t-3 -88l-136 -40q-15 30 -15 90q0 54 24 97.5t62 66.5t84 34.5t92.5 1.5t84.5 -32.5t62 -67t24 -102.5q0 -44 -17 -81.5t-41.5 -62.5t-49 -46t-42 -43t-18.5 -44
q0 -7 3 -17v-2zM125 83q0 37 27.5 64.5t64.5 27.5t64.5 -27.5t27.5 -64.5t-27.5 -64.5t-64.5 -27.5t-64.5 27.5t-27.5 64.5z" />
    <glyph glyph-name="at" unicode="@" horiz-adv-x="905" 
d="M457 -125q-186 0 -309.5 124t-123.5 311q0 181 124.5 308t308.5 127q186 0 304.5 -126t118.5 -309q0 -119 -60 -182t-139 -63q-44 0 -79.5 21t-50.5 60q-50 -70 -134 -70q-92 0 -143.5 68t-51.5 160q0 93 51 159.5t143 66.5q75 0 121 -49v41h133v-310q0 -25 11 -39
t28 -14q30 0 55.5 40t25.5 111q0 145 -94 247t-239 102q-147 0 -240 -101t-93 -248q0 -151 96 -249.5t237 -98.5q123 0 209 72l52 -72q-118 -87 -261 -87zM451 197q40 0 64 31.5t24 75.5t-23.5 75t-64.5 31q-45 0 -70.5 -31.5t-25.5 -75.5q0 -43 26 -74.5t70 -31.5z" />
    <glyph glyph-name="A" unicode="A" horiz-adv-x="631" 
d="M469 0l-48 166h-210l-49 -166h-152l226 700h159l226 -700h-152zM266 353l-22 -75h144l-21 75q-46 166 -51 196q-10 -59 -50 -196z" />
    <glyph glyph-name="B" unicode="B" horiz-adv-x="599" 
d="M285 0h-205v700h218q87 0 134.5 -45.5t47.5 -117.5q0 -88 -76 -131q68 -23 106.5 -72t38.5 -118q0 -97 -66 -156.5t-198 -59.5zM222 117h81q66 0 92 50.5t-1 101.5t-90 51h-82v-203zM222 449h56q30 0 48.5 23.5t20.5 51t-16 51t-53 23.5h-56v-149z" />
    <glyph glyph-name="C" unicode="C" horiz-adv-x="711" 
d="M671 122q-111 -132 -275 -132q-149 0 -252.5 105t-103.5 255q0 148 104 253.5t252 105.5q161 0 268 -124l-106 -92q-76 79 -163 79q-89 0 -150 -64t-61 -158q0 -95 61 -159t150 -64q90 0 166 83z" />
    <glyph glyph-name="D" unicode="D" horiz-adv-x="701" 
d="M328 0h-248v700h220q173 0 267 -83t94 -258q0 -168 -92 -263.5t-241 -95.5zM324 131q94 0 143.5 60.5t49.5 168.5q0 113 -53.5 160.5t-163.5 47.5h-76v-437h100z" />
    <glyph glyph-name="E" unicode="E" horiz-adv-x="566" 
d="M506 0h-426v700h426v-127h-284v-140h199v-126h-199v-180h284v-127z" />
    <glyph glyph-name="F" unicode="F" horiz-adv-x="458" 
d="M202 0h-142v700h368v-132h-226v-135h154v-132h-154v-301z" />
    <glyph glyph-name="G" unicode="G" horiz-adv-x="751" 
d="M681 122q-110 -131 -275 -131q-150 0 -253 104.5t-103 254.5q0 148 104 253.5t252 105.5q161 0 268 -124l-106 -92q-67 79 -163 79q-89 0 -150 -64t-61 -158t62 -158.5t149 -64.5q92 0 143 51v87h-140v121h273v-264z" />
    <glyph glyph-name="H" unicode="H" horiz-adv-x="660" 
d="M580 0h-144v326h-212v-326h-144v700h144v-242h212v242h144v-700z" />
    <glyph glyph-name="I" unicode="I" horiz-adv-x="437" 
d="M377 0h-317v118h87v463h-87v119h317v-119h-87v-463h87v-118z" />
    <glyph glyph-name="J" unicode="J" horiz-adv-x="455" 
d="M173 -9q-96 0 -163 74l78 97q40 -37 80 -37q32 0 51.5 23.5t19.5 60.5q0 80 -0.5 245t-0.5 246h143v-485q0 -98 -51 -161t-157 -63z" />
    <glyph glyph-name="K" unicode="K" horiz-adv-x="605" 
d="M222 0h-142v700h142v-225q0 -9 -0.5 -20t-1 -18t-0.5 -8q5 14 22 39l160 232h161l-185 -267l222 -433h-168l-134 281l-16 37l-4 -6q-3 -5 -8 -14t-10 -15l-38 -51v-232z" />
    <glyph glyph-name="L" unicode="L" horiz-adv-x="469" 
d="M449 0h-389v700h142v-570h247v-130z" />
    <glyph glyph-name="M" unicode="M" horiz-adv-x="942" 
d="M795 700l97 -700h-153l-44 395q-8 63 -8 115q-13 -64 -25 -111l-129 -399h-124l-130 398q-18 62 -26 112q0 -50 -6 -115l-44 -395h-153l97 700h176l133 -421q7 -29 14 -68q12 61 14 67l135 422h176z" />
    <glyph glyph-name="N" unicode="N" horiz-adv-x="654" 
d="M574 700v-700h-135v153l-198 272l-32 52q3 -34 3 -61v-416h-132v700h131l203 -291q5 -8 11 -18.5t10.5 -18.5t5.5 -9q0 1 -0.5 9.5t-1 21.5t-0.5 23v283h135z" />
    <glyph glyph-name="O" unicode="O" horiz-adv-x="799" 
d="M400 -10q-149 0 -254.5 105.5t-105.5 254.5q0 148 105.5 253.5t254.5 105.5q148 0 253.5 -105.5t105.5 -253.5q0 -149 -105.5 -254.5t-253.5 -105.5zM400 124q91 0 151 63.5t60 162.5q0 98 -60 161.5t-151 63.5q-92 0 -152 -63.5t-60 -161.5q0 -99 60 -162.5t152 -63.5z
" />
    <glyph glyph-name="P" unicode="P" horiz-adv-x="611" 
d="M222 0h-142v700h255q104 0 165 -62t61 -168t-61 -167.5t-165 -61.5h-113v-241zM313 371q52 0 81.5 25.5t29.5 73.5t-29 74t-82 26h-91v-199h91z" />
    <glyph glyph-name="Q" unicode="Q" horiz-adv-x="799" 
d="M400 -10q-149 0 -254.5 105.5t-105.5 254.5q0 148 105.5 253.5t254.5 105.5q148 0 253.5 -105.5t105.5 -253.5q0 -131 -83 -230l59 -59l-80 -79l-64 64q-90 -56 -191 -56zM400 124q50 0 92 20l-60 61l80 79l64 -64q35 57 35 130q0 98 -60 161.5t-151 63.5
q-92 0 -152 -63.5t-60 -161.5q0 -99 60 -162.5t152 -63.5z" />
    <glyph glyph-name="R" unicode="R" horiz-adv-x="614" 
d="M222 0h-142v700h255q104 0 165 -62t61 -168q0 -135 -97 -195l120 -275h-156l-98 241h-108v-241zM313 371q52 0 81.5 25.5t29.5 73.5t-29 74t-82 26h-91v-199h91z" />
    <glyph glyph-name="S" unicode="S" horiz-adv-x="499" 
d="M257 -9q-78 0 -140.5 33.5t-96.5 100.5l115 82q43 -84 123 -84q34 0 56 21t22 53q0 28 -28 55.5t-67.5 53t-79 55t-67.5 73.5t-28 96q0 78 56.5 129t132.5 51q114 0 174 -93l-96 -85q-32 48 -72 48q-22 0 -36.5 -14.5t-14.5 -36.5q0 -20 20 -41.5t50 -39.5t64.5 -43.5
t64.5 -52t50 -67t20 -86.5q0 -90 -62.5 -149t-159.5 -59z" />
    <glyph glyph-name="T" unicode="T" horiz-adv-x="452" 
d="M298 0h-144v568h-134v132h412v-132h-134v-568z" />
    <glyph glyph-name="U" unicode="U" horiz-adv-x="633" 
d="M316 122q44 0 71.5 32t27.5 86v460h144v-451q0 -129 -69.5 -194t-173.5 -65q-103 0 -172.5 65t-69.5 194v451h144v-460q0 -54 27.5 -86t70.5 -32z" />
    <glyph glyph-name="V" unicode="V" horiz-adv-x="631" 
d="M367 347l102 353h152l-226 -700h-159l-226 700h152l104 -353q43 -155 50 -196q8 46 51 196z" />
    <glyph glyph-name="W" unicode="W" horiz-adv-x="984" 
d="M494 231h-2q-7 -41 -22 -81l-58 -150h-133l-269 700h140l182 -474q14 -40 22 -81q9 49 21 80l47 120l-137 355h132l55 -146q18 -53 21 -78q5 33 21 78l55 146h132l-137 -355l47 -120q12 -31 21 -80q9 47 22 81l182 474h140l-269 -700h-133l-58 150q-15 40 -22 81z" />
    <glyph glyph-name="X" unicode="X" horiz-adv-x="626" 
d="M396 377l190 -377h-156l-100 216q-17 34 -23 56q-4 -16 -22 -56l-89 -216h-156l179 377l-161 323h159l68 -157q18 -40 22 -57q0 6 23 57l69 157h158z" />
    <glyph glyph-name="Y" unicode="Y" horiz-adv-x="609" 
d="M370 0h-142v295l-198 405h159l87 -211q6 -12 11 -26t8.5 -24t3.5 -11q14 41 23 61l97 211h160l-209 -406v-294z" />
    <glyph glyph-name="Z" unicode="Z" horiz-adv-x="596" 
d="M542 0h-488v106l277 419l33 45q-28 -2 -55 -2h-240v132h473v-107l-281 -426l-28 -38q22 3 47 3h262v-132z" />
    <glyph glyph-name="bracketleft" unicode="[" horiz-adv-x="255" 
d="M250 32v-132h-210v900h210v-132h-66v-636h66z" />
    <glyph glyph-name="backslash" unicode="\" horiz-adv-x="391" 
d="M129 800l280 -900h-148l-280 900h148z" />
    <glyph glyph-name="bracketright" unicode="]" horiz-adv-x="255" 
d="M5 -100v118h68v663h-68v119h210v-900h-210z" />
    <glyph glyph-name="asciicircum" unicode="^" horiz-adv-x="466" 
d="M83 426l-75 75l174 175h78l175 -175l-75 -75l-139 138l-27 -27z" />
    <glyph glyph-name="underscore" unicode="_" horiz-adv-x="507" 
d="M-9 -118v99h525v-99h-525z" />
    <glyph glyph-name="grave" unicode="`" horiz-adv-x="187" 
d="M-38 633l72 77l155 -145l-71 -77z" />
    <glyph glyph-name="a" unicode="a" horiz-adv-x="579" 
d="M559 0h-49q-87 0 -123 83q-23 -39 -68 -66t-106 -27q-77 0 -120 42t-43 101q0 66 53 113t149 47q55 0 118 -12v16q0 36 -23.5 58t-63.5 22q-58 0 -89 -49l-98 73q2 4 6.5 11t22 24t37.5 30t54.5 24t73.5 11q101 0 160 -54.5t59 -143.5v-147q0 -29 30 -29h20v-127z
M249 100q43 0 75 26.5t46 67.5q-52 10 -77 10q-45 0 -73 -15t-28 -44q0 -21 15 -33t42 -12z" />
    <glyph glyph-name="b" unicode="b" horiz-adv-x="592" 
d="M199 0h-135v750h140v-311q57 60 142 60q97 0 154.5 -75t57.5 -178q0 -105 -56.5 -180.5t-154.5 -75.5q-87 0 -148 74v-64zM310 114q52 0 80.5 37t28.5 93q0 57 -28 93.5t-81 36.5q-48 0 -78 -36t-30 -93q0 -52 30.5 -91.5t77.5 -39.5z" />
    <glyph glyph-name="c" unicode="c" horiz-adv-x="525" 
d="M479 413l-97 -90q-22 24 -40.5 35t-46.5 11q-49 0 -80 -35t-31 -89q0 -56 31 -89t80 -33q55 0 91 52l105 -80q-76 -104 -196 -104q-109 0 -180 73t-71 181t71 181t179 73q109 0 185 -86z" />
    <glyph glyph-name="d" unicode="d" horiz-adv-x="593" 
d="M529 0h-135v64q-63 -74 -148 -74q-98 0 -154.5 75.5t-56.5 180.5q0 103 57.5 178t154.5 75q85 0 142 -60v311h140v-750zM283 114q47 0 77.5 39.5t30.5 91.5q0 57 -30 93t-78 36q-53 0 -81 -36.5t-28 -93.5q0 -56 28.5 -93t80.5 -37z" />
    <glyph glyph-name="e" unicode="e" horiz-adv-x="542" 
d="M508 214h-333q7 -57 38.5 -84t76.5 -27q74 0 115 60l93 -67q-41 -56 -89 -81t-127 -25q-108 0 -178 71.5t-70 183.5q0 107 67 180.5t177 73.5q117 0 173.5 -73.5t56.5 -194.5v-17zM277 385q-35 0 -61.5 -22t-36.5 -63h193q-6 40 -33.5 62.5t-61.5 22.5z" />
    <glyph glyph-name="f" unicode="f" horiz-adv-x="369" 
d="M335 364h-103v-364h-142v364h-70v124h70v88q0 85 52 135.5t128 50.5q50 0 89 -17l-46 -119q-14 8 -31 8q-50 0 -50 -68v-78h103v-124z" />
    <glyph glyph-name="g" unicode="g" horiz-adv-x="547" 
d="M276 498q51 0 93 -18l62 71l82 -77l-58 -58q44 -53 44 -122q0 -90 -64.5 -146.5t-158.5 -56.5q-42 0 -78 9q-35 -27 -31.5 -53.5t50.5 -26.5q20 0 63.5 9.5t79.5 9.5q108 0 157 -75q42 -65 13 -142q-32 -85 -131 -120q-55 -19 -123 -19q-91 0 -152.5 27.5t-84.5 69
t-19 89.5t37 91q-28 41 -15.5 98.5t61.5 95.5q-51 54 -51 140q0 90 65 147t159 57zM184 294q0 -42 25.5 -65t66.5 -23q42 0 66.5 23t24.5 65q0 43 -24.5 67t-66.5 24t-67 -24.5t-25 -66.5zM176 -99q-10 0 -26 2q-22 -41 9.5 -71t116.5 -30q103 0 134 48q20 31 -5 56
q-18 18 -50 18q-25 0 -83 -11.5t-96 -11.5z" />
    <glyph glyph-name="h" unicode="h" horiz-adv-x="590" 
d="M204 0h-140v750h140v-295q0 -15 -3 -34q55 79 148 79q77 0 127 -57t50 -153v-290h-141v282q0 49 -26 76t-64 27q-35 0 -61 -27t-30 -77v-281z" />
    <glyph glyph-name="i" unicode="i" horiz-adv-x="284" 
d="M50 639q0 37 27 64.5t65 27.5t65 -27.5t27 -64.5t-27 -64.5t-65 -27.5t-65 27.5t-27 64.5zM212 0h-143v488h143v-488z" />
    <glyph glyph-name="j" unicode="j" horiz-adv-x="305" 
d="M37 -309q-51 0 -93 23.5t-64 68.5l92 88q15 -46 59 -46q27 0 42.5 20.5t15.5 55.5l-1 587h143v-594q0 -89 -52.5 -146t-141.5 -57zM67 630q0 38 27.5 65t64.5 27t64.5 -27t27.5 -65t-27.5 -65t-64.5 -27t-64.5 27t-27.5 65z" />
    <glyph glyph-name="k" unicode="k" horiz-adv-x="531" 
d="M537 0h-152l-137 205l-42 -48v-157h-142v750h142v-427l136 166h156l-167 -191z" />
    <glyph glyph-name="l" unicode="l" horiz-adv-x="270" 
d="M206 0h-142v750h142v-750z" />
    <glyph glyph-name="m" unicode="m" horiz-adv-x="851" 
d="M204 0h-140v488h140v-25q0 -10 -4 -40q48 77 134 77q98 0 137 -80q60 80 155 80q75 0 118 -49t43 -136v-315h-140v305q0 38 -22.5 59t-53.5 21t-53.5 -22t-22.5 -62v-301h-140v308q0 35 -21 54.5t-51 19.5q-31 0 -54.5 -20t-24.5 -56v-306z" />
    <glyph glyph-name="n" unicode="n" horiz-adv-x="590" 
d="M204 286v-286h-140v488h140v-33q0 -13 -3 -34q55 79 148 79q77 0 127 -57t50 -153v-290h-141v282q0 49 -26 76t-64 27q-34 0 -62 -26.5t-29 -72.5z" />
    <glyph glyph-name="o" unicode="o" horiz-adv-x="578" 
d="M289 -9q-108 0 -181.5 73t-73.5 181t73.5 181t181.5 73t181.5 -73t73.5 -181t-73.5 -181t-181.5 -73zM289 115q53 0 85.5 36.5t32.5 93.5q0 56 -32.5 92.5t-85.5 36.5t-86 -36.5t-33 -92.5q0 -57 33.5 -93.5t85.5 -36.5z" />
    <glyph glyph-name="p" unicode="p" horiz-adv-x="592" 
d="M199 -250h-135v738h140v-49q57 60 142 60q97 0 154.5 -75t57.5 -178q0 -105 -56.5 -180.5t-154.5 -75.5q-87 0 -148 74v-314zM310 114q52 0 80.5 37t28.5 93q0 57 -28 93.5t-81 36.5q-48 0 -78 -36t-30 -93q0 -52 30.5 -91.5t77.5 -39.5z" />
    <glyph glyph-name="q" unicode="q" horiz-adv-x="592" 
d="M538 -250h-135v314q-63 -74 -148 -74q-98 0 -154.5 75.5t-56.5 180.5q0 103 57.5 178t154.5 75q85 0 142 -60v49h140v-738zM292 114q47 0 77.5 39.5t30.5 91.5q0 57 -30 93t-78 36q-53 0 -81 -36.5t-28 -93.5q0 -56 28.5 -93t80.5 -37z" />
    <glyph glyph-name="r" unicode="r" horiz-adv-x="371" 
d="M204 241v-241h-140v488h140v-33q0 -16 -5 -48q49 93 136 93v-137q-57 0 -94 -32t-37 -90z" />
    <glyph glyph-name="s" unicode="s" horiz-adv-x="470" 
d="M34 72l79 92q48 -55 135 -55q23 0 37.5 8.5t14.5 21.5q0 18 -16 28.5t-50 20.5q-170 49 -170 163q0 67 53 107t120 40q102 0 170 -71l-78 -84q-16 18 -42 31t-47 13q-20 0 -32.5 -8.5t-12.5 -22.5q0 -17 17.5 -27.5t54.5 -21.5q169 -50 169 -161q0 -69 -53 -112.5
t-136 -43.5q-137 0 -213 82z" />
    <glyph glyph-name="t" unicode="t" horiz-adv-x="345" 
d="M34 488h68v174h140v-174h69v-130h-69v-358h-140v358h-68v130z" />
    <glyph glyph-name="u" unicode="u" horiz-adv-x="586" 
d="M522 488v-488h-140v33q0 13 3 34q-55 -79 -148 -79q-77 0 -127 57t-50 153v290h141v-282q0 -49 26 -76t64 -27q34 0 61.5 26t29.5 73v286h140z" />
    <glyph glyph-name="v" unicode="v" horiz-adv-x="536" 
d="M348 0h-160l-178 488h152l89 -254q12 -33 17 -70q10 49 17 70l89 254h152z" />
    <glyph glyph-name="w" unicode="w" horiz-adv-x="841" 
d="M679 488h152l-168 -488h-159l-73 228q-5 13 -11 45l-12 -45l-75 -228h-159q-96 284 -164 488h151l76 -269q3 -11 6.5 -26.5t6 -25.5t3.5 -13q6 29 17 65l79 269h142l77 -269q4 -13 7 -28.5t5.5 -26t2.5 -11.5q9 36 18 66z" />
    <glyph glyph-name="x" unicode="x" horiz-adv-x="534" 
d="M10 0l168 248l-161 240h157l69 -104l24 -45q11 27 23 45l70 104h157l-162 -240l169 -248h-156l-77 116q-19 27 -24 41q-16 -31 -22 -41l-79 -116h-156z" />
    <glyph glyph-name="y" unicode="y" horiz-adv-x="533" 
d="M48 -273l144 327l-182 434h147l94 -228q4 -9 7.5 -20.5t5.5 -20.5l3 -9q0 8 18 50l98 228h148l-337 -761h-146z" />
    <glyph glyph-name="z" unicode="z" horiz-adv-x="506" 
d="M34 88l226 252q14 17 32 30q-1 0 -8 -1t-17 -2t-18 -1h-200v122h423v-89l-226 -249q-20 -22 -36 -33l8 1q7 2 19 3t24 1h211v-122h-438v88z" />
    <glyph glyph-name="braceleft" unicode="{" horiz-adv-x="297" 
d="M20 287v133q63 0 63 60v179q0 68 41.5 107t115.5 39h30v-130h-8q-14 0 -24 -10.5t-10 -23.5v-164q0 -76 -71 -124q71 -46 71 -123v-165q0 -13 10 -23.5t24 -10.5h8v-130h-30q-75 0 -116 38.5t-41 107.5v180q0 60 -63 60z" />
    <glyph glyph-name="bar" unicode="|" horiz-adv-x="302" 
d="M80 -56v806h142v-806h-142z" />
    <glyph glyph-name="braceright" unicode="}" horiz-adv-x="297" 
d="M270 419v-133q-63 0 -63 -60v-179q0 -68 -41.5 -107t-115.5 -39h-30v130h8q14 0 24 10.5t10 23.5v164q0 76 70 123q-70 48 -70 124v165q0 13 -10 23.5t-24 10.5h-8v130h30q75 0 116 -38.5t41 -107.5v-180q0 -60 63 -60z" />
    <glyph glyph-name="asciitilde" unicode="~" horiz-adv-x="496" 
d="M89 303l-82 62q53 80 136 80q33 0 83.5 -18.5t67.5 -18.5q16 0 34 11.5t29 32.5q2 -1 90 -61q-29 -45 -68.5 -67t-78.5 -22q-35 0 -80.5 18.5t-67.5 18.5q-30 0 -63 -36z" />
    <glyph glyph-name="uni00A0" unicode="&#xa0;" horiz-adv-x="300" 
 />
    <glyph glyph-name="exclamdown" unicode="&#xa1;" horiz-adv-x="242" 
d="M56 454h129l4 -454h-138zM30 618q0 38 27 65t65 27t65 -27t27 -65t-27 -65t-65 -27t-65 27t-27 65z" />
    <glyph glyph-name="cent" unicode="&#xa2;" horiz-adv-x="478" 
d="M452 525l-97 -90q-22 24 -40.5 35t-46.5 11q-49 0 -80 -35t-31 -89q0 -56 31 -89t80 -33q55 0 91 52l105 -80q-61 -82 -145 -99v-108h-108v109q-87 19 -140.5 87.5t-53.5 160.5t53.5 160.5t140.5 87.5v95h108v-95q75 -16 133 -80z" />
    <glyph glyph-name="sterling" unicode="&#xa3;" horiz-adv-x="491" 
d="M329 374v-120h-108q-2 -70 -24 -124h272v-130h-453v130h46q26 62 24 124h-70v120h59q-7 61 -7 124q0 97 59 152.5t145 55.5q99 0 157 -64.5t58 -191.5h-144q0 56 -14 88.5t-54 32.5q-32 0 -49.5 -23t-17.5 -61q0 -41 6 -113h115z" />
    <glyph glyph-name="currency" unicode="&#xa4;" horiz-adv-x="505" 
d="M255 128q-50 0 -90 19l-69 -69l-83 83l71 70q-19 41 -19 90q0 47 17 85l-70 70l83 83l65 -66q41 22 95 22q51 0 91 -21l65 65l83 -83l-68 -68q19 -43 19 -87q0 -50 -21 -92l69 -68l-83 -83l-68 68q-39 -18 -87 -18zM255 411q-37 0 -57.5 -26.5t-20.5 -63.5
q0 -36 20.5 -62.5t57.5 -26.5q36 0 57 26.5t21 62.5q0 37 -20.5 63.5t-57.5 26.5z" />
    <glyph glyph-name="yen" unicode="&#xa5;" horiz-adv-x="550" 
d="M88 297v98h86l-170 305h159l87 -171q6 -12 11.5 -26t8.5 -24t3 -11q16 49 23 61l97 171h160l-179 -305h74v-98h-104v-62h104v-98h-104v-137h-142v137h-114v98h114v62h-114z" />
    <glyph glyph-name="brokenbar" unicode="&#xa6;" horiz-adv-x="190" 
d="M144 -54h-108v384h108v-384zM144 390h-108v340h108v-340z" />
    <glyph glyph-name="section" unicode="&#xa7;" horiz-adv-x="459" 
d="M237 -9q-159 0 -217 139l124 71q38 -76 100 -76q19 0 29 9t10 22q0 18 -27 31t-65.5 26t-77.5 31.5t-66 55t-27 88.5t51 105q-15 30 -15 63q0 66 52 110t127 44q114 0 174 -93l-98 -77q-27 40 -70 40q-16 0 -26.5 -8t-10.5 -20q0 -14 24.5 -26.5t59 -26.5t69 -32.5
t59 -52t24.5 -77.5q0 -60 -45 -105q25 -35 25 -79q0 -68 -43.5 -115t-139.5 -47zM149 400q0 -15 7.5 -27t25 -22t32 -16.5t42 -17t42.5 -16.5q9 14 10 25.5t-6 20.5t-16.5 16.5t-26 14.5t-32 13t-36.5 14t-36 16q-6 -11 -6 -21z" />
    <glyph glyph-name="dieresis" unicode="&#xa8;" horiz-adv-x="372" 
d="M25 622q0 28 19.5 48t48.5 20q28 0 48 -20t20 -48t-20 -47.5t-48 -19.5q-29 0 -48.5 19.5t-19.5 47.5zM212 622q0 28 20 48t48 20t48 -20t20 -48t-20 -47.5t-48 -19.5q-29 0 -48.5 19.5t-19.5 47.5z" />
    <glyph glyph-name="copyright" unicode="&#xa9;" horiz-adv-x="792" 
d="M34 349q0 149 106 255.5t257 106.5q149 0 255 -106.5t106 -255.5q0 -150 -106 -256t-255 -106q-151 0 -257 106t-106 256zM551 488l-77 -73q-30 35 -73 35q-38 0 -64.5 -27t-26.5 -73q0 -43 29.5 -70.5t65.5 -27.5q46 0 75 40l81 -65q-62 -85 -159 -85q-85 0 -145 60.5
t-60 147.5t60 147.5t144 60.5q88 0 150 -70zM104 349q0 -124 84.5 -209t208.5 -85q122 0 206.5 85.5t84.5 208.5q0 124 -84 209t-207 85t-208 -85.5t-85 -208.5z" />
    <glyph glyph-name="ordfeminine" unicode="&#xaa;" horiz-adv-x="436" 
d="M409 332h-30q-28 0 -56 16.5t-42 46.5q-52 -71 -126 -71q-58 0 -90 32t-32 76q0 50 39.5 85.5t112.5 35.5q46 0 83 -12v15q0 60 -60 60q-44 0 -67 -37l-74 55q2 3 5.5 8t16 18t28 23t41.5 18t55 8q76 0 120.5 -41t44.5 -108v-133q0 -22 23 -22h8v-73zM193 401
q35 0 53 26.5t21 61.5q-32 6 -51 6q-31 0 -48.5 -15.5t-17.5 -38.5q0 -16 12 -28t31 -12z" />
    <glyph glyph-name="guillemotleft" unicode="&#xab;" horiz-adv-x="517" 
d="M298 241l-76 -76l-214 214l214 213l76 -75l-139 -138zM498 241l-76 -76l-214 214l214 213l76 -75l-139 -138z" />
    <glyph glyph-name="logicalnot" unicode="&#xac;" horiz-adv-x="440" 
d="M40 310v130h363v-211h-120v81h-243z" />
    <glyph glyph-name="registered" unicode="&#xae;" horiz-adv-x="536" 
d="M25 467q0 101 71 172t172 71q100 0 171.5 -71t71.5 -172t-71 -172t-172 -71t-172 71t-71 172zM80 467q0 -82 54 -136t134 -54t134 55t54 135q0 81 -53.5 135.5t-134.5 54.5t-134.5 -54.5t-53.5 -135.5zM238 358h-45v222h82q32 0 52 -19.5t20 -52.5q0 -48 -36 -66l43 -84
h-50l-37 76h-29v-76zM267 476q36 0 36 32q0 31 -36 31h-29v-63h29z" />
    <glyph glyph-name="degree" unicode="&#xb0;" horiz-adv-x="246" 
d="M8 595q0 47 33.5 81t81.5 34q47 0 81 -34t34 -81q0 -48 -34 -81.5t-81 -33.5q-48 0 -81.5 33.5t-33.5 81.5zM149 595q0 11 -7.5 18.5t-18.5 7.5t-19.5 -7.5t-8.5 -18.5t8.5 -19t19.5 -8t18.5 8t7.5 19z" />
    <glyph glyph-name="plusminus" unicode="&#xb1;" horiz-adv-x="443" 
d="M40 372v108h127v128h108v-128h128v-108h-128v-127h-108v127h-127zM24 112v98h372v-98h-372z" />
    <glyph glyph-name="twosuperior" unicode="&#xb2;" horiz-adv-x="331" 
d="M22 340v85q78 30 121 78t43 84q0 16 -8 24.5t-20 8.5q-18 0 -26.5 -16.5t-3.5 -35.5l-93 -28q-25 64 13 117t111 53q53 0 91 -32.5t38 -91.5q0 -90 -92 -147h97v-99h-271z" />
    <glyph glyph-name="threesuperior" unicode="&#xb3;" horiz-adv-x="333" 
d="M164 330q-57 0 -97.5 25t-50.5 71l108 34q6 -29 32 -29q30 0 30 30q0 14 -10 23t-29 9h-9v55q15 0 28.5 10.5t13.5 28.5q0 21 -19 21q-21 0 -21 -32h-110q0 64 40 99t95 35q50 0 87.5 -28t37.5 -76q0 -51 -33 -79q45 -26 45 -77q0 -58 -39.5 -89t-98.5 -31z" />
    <glyph glyph-name="acute" unicode="&#xb4;" horiz-adv-x="283" 
d="M173 710l72 -77l-156 -145l-71 77z" />
    <glyph glyph-name="mu" unicode="&#xb5;" horiz-adv-x="586" 
d="M522 488v-488h-140v33q0 13 3 34q-55 -79 -148 -79q-24 0 -50 7v-261h-127v754h141v-282q0 -49 26 -76t64 -27q35 0 63 27.5t28 76.5v281h140z" />
    <glyph glyph-name="mu" unicode="&#x3bc;" horiz-adv-x="586" 
d="M522 488v-488h-140v33q0 13 3 34q-55 -79 -148 -79q-24 0 -50 7v-261h-127v754h141v-282q0 -49 26 -76t64 -27q35 0 63 27.5t28 76.5v281h140z" />
    <glyph glyph-name="paragraph" unicode="&#xb6;" horiz-adv-x="708" 
d="M635 0h-140v700h140v-700zM464 0h-142v241h-23q-104 0 -165 61.5t-61 167.5t61 168t165 62h165v-700z" />
    <glyph glyph-name="periodcentered" unicode="&#xb7;" horiz-adv-x="232" 
d="M23 347q0 37 27.5 64.5t64.5 27.5t64.5 -27.5t27.5 -64.5t-27.5 -64.5t-64.5 -27.5t-64.5 27.5t-27.5 64.5z" />
    <glyph glyph-name="cedilla" unicode="&#xb8;" horiz-adv-x="424" 
d="M122 -204l68 53q10 -12 24 -12q23 0 23 24q0 26 -24 26q-15 0 -23 -15l-63 28v133h78v-83q13 6 29 6q49 0 76.5 -30t27.5 -71q0 -43 -30 -75t-83 -32q-69 0 -103 48z" />
    <glyph glyph-name="onesuperior" unicode="&#xb9;" horiz-adv-x="290" 
d="M254 340h-234v98h63v135l-35 -17l-44 89l112 55h75v-262h63v-98z" />
    <glyph glyph-name="ordmasculine" unicode="&#xba;" horiz-adv-x="497" 
d="M226 323q-90 0 -140 57t-50 136t50 136.5t140 57.5q89 0 139.5 -58t50.5 -136q0 -79 -50 -136t-140 -57zM226 606q-37 0 -57.5 -26.5t-20.5 -63.5q0 -36 20.5 -62.5t57.5 -26.5q36 0 57 26.5t21 62.5q0 37 -20.5 63.5t-57.5 26.5z" />
    <glyph glyph-name="guillemotright" unicode="&#xbb;" horiz-adv-x="517" 
d="M99 165l-76 76l139 138l-139 138l76 75l214 -213zM299 165l-76 76l139 138l-139 138l76 75l214 -213z" />
    <glyph glyph-name="onequarter" unicode="&#xbc;" horiz-adv-x="693" 
d="M672 72h-54v-72h-108v72h-144v65l171 232h81v-199h54v-98zM473 162h42v59zM254 340h-234v98h63v135l-35 -17l-44 89l112 55h75v-262h63v-98zM104 0l374 700h130l-374 -700h-130z" />
    <glyph glyph-name="onehalf" unicode="&#xbd;" horiz-adv-x="670" 
d="M93 0l374 700h130l-374 -700h-130zM254 340h-234v98h63v135l-35 -17l-44 89l112 55h75v-262h63v-98zM382 0v85q78 30 121 78t43 84q0 16 -8 24.5t-20 8.5q-18 0 -26.5 -16.5t-3.5 -35.5l-93 -28q-25 64 13 117t111 53q53 0 91 -32.5t38 -91.5q0 -90 -92 -147h97v-99h-271
z" />
    <glyph glyph-name="threequarters" unicode="&#xbe;" horiz-adv-x="663" 
d="M652 72h-54v-72h-108v72h-144v65l171 232h81v-199h54v-98zM453 162h42v59zM107 0l374 700h130l-374 -700h-130zM151 330q-57 0 -97.5 25t-50.5 71l108 34q6 -29 32 -29q30 0 30 30q0 14 -10 23t-29 9h-9v55q15 0 28.5 10.5t13.5 28.5q0 21 -19 21q-21 0 -21 -32h-110
q0 64 40 99t95 35q50 0 87.5 -28t37.5 -76q0 -51 -33 -79q45 -26 45 -77q0 -58 -39.5 -89t-98.5 -31z" />
    <glyph glyph-name="questiondown" unicode="&#xbf;" horiz-adv-x="494" 
d="M179 492h134q9 -36 1 -67t-25 -52t-39.5 -43t-42 -40t-33.5 -43t-14 -52q0 -33 18.5 -54t52.5 -21q43 0 62 36t3 88l136 40q15 -30 15 -90q0 -54 -24 -97.5t-62 -66.5t-84 -34.5t-92.5 -1.5t-84.5 32.5t-62 67t-24 102.5q0 44 17 81.5t41.5 62.5t49 46t42 43t18.5 44
q0 7 -3 17v2zM148 618q0 38 27 65t65 27t65 -27t27 -65t-27 -65t-65 -27t-65 27t-27 65z" />
    <glyph glyph-name="Agrave" unicode="&#xc0;" horiz-adv-x="621" 
d="M464 0l-48 166h-210l-49 -166h-152l226 700h159l226 -700h-152zM181 877l72 77l155 -145l-71 -77zM261 353l-22 -75h144l-21 75q-46 166 -51 196q-10 -59 -50 -196z" />
    <glyph glyph-name="Aacute" unicode="&#xc1;" horiz-adv-x="621" 
d="M464 0l-48 166h-210l-49 -166h-152l226 700h159l226 -700h-152zM378 954l72 -77l-156 -145l-71 77zM261 353l-22 -75h144l-21 75q-46 166 -51 196q-10 -59 -50 -196z" />
    <glyph glyph-name="Acircumflex" unicode="&#xc2;" horiz-adv-x="621" 
d="M464 0l-48 166h-210l-49 -166h-152l226 700h159l226 -700h-152zM245 768l-77 77l105 105h77l106 -105l-76 -77l-68 78zM261 353l-22 -75h144l-21 75q-46 166 -51 196q-10 -59 -50 -196z" />
    <glyph glyph-name="Atilde" unicode="&#xc3;" horiz-adv-x="621" 
d="M464 0l-48 166h-210l-49 -166h-152l226 700h159l226 -700h-152zM196 780l-59 76q42 52 110 52q23 0 70.5 -18.5t74.5 -18.5q24 0 55 28l62 -75q-21 -31 -46.5 -44t-64.5 -13q-27 0 -76 18.5t-72 18.5q-24 0 -54 -24zM261 353l-22 -75h144l-21 75q-46 166 -51 196
q-10 -59 -50 -196z" />
    <glyph glyph-name="Adieresis" unicode="&#xc4;" horiz-adv-x="621" 
d="M464 0l-48 166h-210l-49 -166h-152l226 700h159l226 -700h-152zM261 353l-22 -75h144l-21 75q-46 166 -51 196q-10 -59 -50 -196zM151 826q0 28 19.5 48t48.5 20q28 0 48 -20t20 -48t-20 -47.5t-48 -19.5q-29 0 -48.5 19.5t-19.5 47.5zM338 826q0 28 20 48t48 20t48 -20
t20 -48t-20 -47.5t-48 -19.5q-29 0 -48.5 19.5t-19.5 47.5z" />
    <glyph glyph-name="Aring" unicode="&#xc5;" horiz-adv-x="621" 
d="M464 0l-48 166h-210l-49 -166h-152l226 700h159l226 -700h-152zM194 841q0 49 34.5 83.5t83.5 34.5t83.5 -34.5t34.5 -83.5t-34.5 -83.5t-83.5 -34.5t-83.5 34.5t-34.5 83.5zM261 353l-22 -75h144l-21 75q-46 166 -51 196q-10 -59 -50 -196zM273 841q0 -16 11.5 -27.5
t27.5 -11.5t27 11.5t11 27.5t-11 27t-27 11t-27.5 -11t-11.5 -27z" />
    <glyph glyph-name="AE" unicode="&#xc6;" horiz-adv-x="805" 
d="M125 0h-152l336 700h461v-127h-284v-140h199v-126h-199v-180h284v-127h-426v166h-143zM307 396l-54 -118h91v217q-26 -77 -37 -99z" />
    <glyph glyph-name="Ccedilla" unicode="&#xc7;" horiz-adv-x="676" 
d="M289 -204l68 53q10 -12 24 -12q23 0 23 24q0 26 -24 26q-16 0 -23 -15l-63 28v100q-121 27 -198 124.5t-77 225.5q0 148 104 253.5t252 105.5q161 0 268 -124l-106 -92q-76 79 -163 79q-89 0 -150 -64t-61 -158q0 -95 61 -159t150 -64q90 0 166 83l110 -88
q-111 -132 -275 -132h-3v-40q14 6 29 6q49 0 76.5 -30t27.5 -71q0 -43 -30 -75t-83 -32q-69 0 -103 48z" />
    <glyph glyph-name="Egrave" unicode="&#xc8;" horiz-adv-x="566" 
d="M506 0h-426v700h426v-127h-284v-140h199v-126h-199v-180h284v-127zM201 877l72 77l155 -145l-71 -77z" />
    <glyph glyph-name="Eacute" unicode="&#xc9;" horiz-adv-x="566" 
d="M506 0h-426v700h426v-127h-284v-140h199v-126h-199v-180h284v-127zM335 954l72 -77l-156 -145l-71 77z" />
    <glyph glyph-name="Ecircumflex" unicode="&#xca;" horiz-adv-x="566" 
d="M506 0h-426v700h426v-127h-284v-140h199v-126h-199v-180h284v-127zM239 762l-77 77l105 105h77l106 -105l-76 -77l-68 78z" />
    <glyph glyph-name="Edieresis" unicode="&#xcb;" horiz-adv-x="566" 
d="M506 0h-426v700h426v-127h-284v-140h199v-126h-199v-180h284v-127zM144 866q0 28 20 48t48 20t48 -20t20 -48t-20 -47.5t-48 -19.5q-29 0 -48.5 19.5t-19.5 47.5zM331 866q0 28 19.5 48t48.5 20q28 0 48 -20t20 -48t-20 -47.5t-48 -19.5q-29 0 -48.5 19.5t-19.5 47.5z
" />
    <glyph glyph-name="Igrave" unicode="&#xcc;" horiz-adv-x="454" 
d="M394 0h-317v118h87v463h-87v119h317v-119h-87v-463h87v-118zM60 877l72 77l155 -145l-71 -77z" />
    <glyph glyph-name="Iacute" unicode="&#xcd;" horiz-adv-x="437" 
d="M377 0h-317v118h87v463h-87v119h317v-119h-87v-463h87v-118zM297 954l72 -77l-156 -145l-71 77z" />
    <glyph glyph-name="Icircumflex" unicode="&#xce;" horiz-adv-x="437" 
d="M377 0h-317v118h87v463h-87v119h317v-119h-87v-463h87v-118zM141 762l-77 77l105 105h77l106 -105l-76 -77l-68 78z" />
    <glyph glyph-name="Idieresis" unicode="&#xcf;" horiz-adv-x="451" 
d="M391 0h-317v118h87v463h-87v119h317v-119h-87v-463h87v-118zM60 866q0 28 20 48t48 20t48 -20t20 -48t-20 -47.5t-48 -19.5q-29 0 -48.5 19.5t-19.5 47.5zM247 866q0 28 19.5 48t48.5 20q28 0 48 -20t20 -48t-20 -47.5t-48 -19.5q-29 0 -48.5 19.5t-19.5 47.5z" />
    <glyph glyph-name="Eth" unicode="&#xd0;" horiz-adv-x="711" 
d="M338 0h-248v282h-60v132h60v286h220q173 0 267 -83t94 -258q0 -168 -92 -263.5t-241 -95.5zM334 131q94 0 143.5 60.5t49.5 168.5q0 113 -53.5 160.5t-163.5 47.5h-76v-154h129v-132h-129v-151h100z" />
    <glyph glyph-name="Ntilde" unicode="&#xd1;" horiz-adv-x="654" 
d="M574 700v-700h-135v153l-198 272l-32 52q3 -34 3 -61v-416h-132v700h131l203 -291q15 -22 27 -46v3q0 4 -0.5 10t-1 12.5t-0.5 14.5v14v283h135zM229 780l-59 76q42 52 110 52q23 0 70.5 -18.5t74.5 -18.5q7 0 13.5 1.5t11.5 3.5t10.5 6t8 6t6.5 6l5 5l62 -75
q-21 -31 -46.5 -44t-64.5 -13q-27 0 -76 18.5t-72 18.5q-24 0 -54 -24z" />
    <glyph glyph-name="Ograve" unicode="&#xd2;" horiz-adv-x="799" 
d="M400 -10q-149 0 -254.5 105.5t-105.5 254.5q0 148 105.5 253.5t254.5 105.5q148 0 253.5 -105.5t105.5 -253.5q0 -149 -105.5 -254.5t-253.5 -105.5zM400 124q91 0 151 63.5t60 162.5q0 98 -60 161.5t-151 63.5q-92 0 -152 -63.5t-60 -161.5q0 -99 60 -162.5t152 -63.5z
M294 877l72 77l155 -145l-71 -77z" />
    <glyph glyph-name="Oacute" unicode="&#xd3;" horiz-adv-x="799" 
d="M400 -10q-149 0 -254.5 105.5t-105.5 254.5q0 148 105.5 253.5t254.5 105.5q148 0 253.5 -105.5t105.5 -253.5q0 -149 -105.5 -254.5t-253.5 -105.5zM400 124q91 0 151 63.5t60 162.5q0 98 -60 161.5t-151 63.5q-92 0 -152 -63.5t-60 -161.5q0 -99 60 -162.5t152 -63.5z
M428 954l72 -77l-156 -145l-71 77z" />
    <glyph glyph-name="Ocircumflex" unicode="&#xd4;" horiz-adv-x="799" 
d="M400 -10q-149 0 -254.5 105.5t-105.5 254.5q0 148 105.5 253.5t254.5 105.5q148 0 253.5 -105.5t105.5 -253.5q0 -149 -105.5 -254.5t-253.5 -105.5zM400 124q91 0 151 63.5t60 162.5q0 98 -60 161.5t-151 63.5q-92 0 -152 -63.5t-60 -161.5q0 -99 60 -162.5t152 -63.5z
M332 762l-77 77l105 105h77l106 -105l-76 -77l-68 78z" />
    <glyph glyph-name="Otilde" unicode="&#xd5;" horiz-adv-x="799" 
d="M400 -10q-149 0 -254.5 105.5t-105.5 254.5q0 148 105.5 253.5t254.5 105.5q148 0 253.5 -105.5t105.5 -253.5q0 -149 -105.5 -254.5t-253.5 -105.5zM400 124q91 0 151 63.5t60 162.5q0 98 -60 161.5t-151 63.5q-92 0 -152 -63.5t-60 -161.5q0 -99 60 -162.5t152 -63.5z
M289 780l-59 76q42 52 110 52q23 0 70.5 -18.5t74.5 -18.5q7 0 13.5 1.5t11.5 3.5t10.5 6t8 6t6.5 6l5 5l62 -75q-21 -31 -46.5 -44t-64.5 -13q-27 0 -76 18.5t-72 18.5q-24 0 -54 -24z" />
    <glyph glyph-name="Odieresis" unicode="&#xd6;" horiz-adv-x="799" 
d="M400 -10q-149 0 -254.5 105.5t-105.5 254.5q0 148 105.5 253.5t254.5 105.5q148 0 253.5 -105.5t105.5 -253.5q0 -149 -105.5 -254.5t-253.5 -105.5zM400 124q91 0 151 63.5t60 162.5q0 98 -60 161.5t-151 63.5q-92 0 -152 -63.5t-60 -161.5q0 -99 60 -162.5t152 -63.5z
M237 866q0 28 19.5 48t48.5 20q28 0 48 -20t20 -48t-20 -47.5t-48 -19.5q-29 0 -48.5 19.5t-19.5 47.5zM424 866q0 28 20 48t48 20t48 -20t20 -48t-20 -47.5t-48 -19.5q-29 0 -48.5 19.5t-19.5 47.5z" />
    <glyph glyph-name="multiply" unicode="&#xd7;" horiz-adv-x="414" 
d="M82 181l-69 69l114 115l-115 115l70 70l115 -116l114 116l71 -70l-116 -115l115 -115l-70 -69l-114 115z" />
    <glyph glyph-name="Oslash" unicode="&#xd8;" horiz-adv-x="799" 
d="M400 -10q-149 0 -254.5 105.5t-105.5 254.5q0 148 105.5 253.5t254.5 105.5q148 0 253.5 -105.5t105.5 -253.5q0 -149 -105.5 -254.5t-253.5 -105.5zM400 124q91 0 151 63.5t60 162.5q0 107 -71 172l-207 -388q30 -10 67 -10zM188 350q0 -105 66 -169l206 385
q-28 9 -60 9q-92 0 -152 -63.5t-60 -161.5z" />
    <glyph glyph-name="Ugrave" unicode="&#xd9;" horiz-adv-x="633" 
d="M316 122q44 0 71.5 32t27.5 86v460h144v-451q0 -129 -69.5 -194t-173.5 -65q-103 0 -172.5 65t-69.5 194v451h144v-460q0 -54 27.5 -86t70.5 -32zM219 877l72 77l155 -145l-71 -77z" />
    <glyph glyph-name="Uacute" unicode="&#xda;" horiz-adv-x="633" 
d="M316 122q44 0 71.5 32t27.5 86v460h144v-451q0 -129 -69.5 -194t-173.5 -65q-103 0 -172.5 65t-69.5 194v451h144v-460q0 -54 27.5 -86t70.5 -32zM353 954l72 -77l-156 -145l-71 77z" />
    <glyph glyph-name="Ucircumflex" unicode="&#xdb;" horiz-adv-x="633" 
d="M316 122q44 0 71.5 32t27.5 86v460h144v-451q0 -129 -69.5 -194t-173.5 -65q-103 0 -172.5 65t-69.5 194v451h144v-460q0 -54 27.5 -86t70.5 -32zM257 762l-77 77l105 105h77l106 -105l-76 -77l-68 78z" />
    <glyph glyph-name="Udieresis" unicode="&#xdc;" horiz-adv-x="633" 
d="M316 122q44 0 71.5 32t27.5 86v460h144v-451q0 -129 -69.5 -194t-173.5 -65q-103 0 -172.5 65t-69.5 194v451h144v-460q0 -54 27.5 -86t70.5 -32zM161 866q0 28 19.5 48t48.5 20q28 0 48 -20t20 -48t-20 -47.5t-48 -19.5q-29 0 -48.5 19.5t-19.5 47.5zM348 866
q0 28 20 48t48 20t48 -20t20 -48t-20 -47.5t-48 -19.5q-29 0 -48.5 19.5t-19.5 47.5z" />
    <glyph glyph-name="Yacute" unicode="&#xdd;" horiz-adv-x="609" 
d="M370 0h-142v295l-198 405h159l87 -211q6 -12 11 -26t8.5 -24t3.5 -11q14 41 23 61l97 211h160l-209 -406v-294zM327 954l72 -77l-156 -145l-71 77z" />
    <glyph glyph-name="Thorn" unicode="&#xde;" horiz-adv-x="591" 
d="M222 0h-142v700h142v-95h113q104 0 165 -62t61 -168t-61 -167.5t-165 -61.5h-113v-146zM313 475h-91v-199h91q52 0 81.5 25.5t29.5 73.5t-29 74t-82 26z" />
    <glyph glyph-name="germandbls" unicode="&#xdf;" horiz-adv-x="575" 
d="M220 0h-140v520q0 82 50 136t137 54q62 0 107 -27.5t63.5 -70t11.5 -95t-41 -101.5q-12 -13 -10 -25t24 -23q50 -25 79 -62.5t29 -107.5q0 -92 -73.5 -147.5t-207.5 -55.5v135q133 0 133 69q0 29 -21 51.5t-45.5 34.5t-45.5 36t-21 56q0 42 30 89.5t30 69.5q0 56 -42 56
q-47 0 -47 -78v-514z" />
    <glyph glyph-name="agrave" unicode="&#xe0;" horiz-adv-x="579" 
d="M559 0h-49q-87 0 -123 83q-23 -39 -68 -66t-106 -27q-77 0 -120 42t-43 101q0 66 53 113t149 47q55 0 118 -12v16q0 36 -23.5 58t-63.5 22q-58 0 -89 -49l-98 73q2 4 6.5 11t22 24t37.5 30t54.5 24t73.5 11q101 0 160 -54.5t59 -143.5v-147q0 -29 30 -29h20v-127z
M172 673l72 77l155 -145l-71 -77zM249 100q43 0 75 26t46 68q-52 10 -77 10q-45 0 -73 -15t-28 -44q0 -21 15 -33t42 -12z" />
    <glyph glyph-name="aacute" unicode="&#xe1;" horiz-adv-x="579" 
d="M559 0h-49q-87 0 -123 83q-23 -39 -68 -66t-106 -27q-77 0 -120 42t-43 101q0 66 53 113t149 47q55 0 118 -12v16q0 36 -23.5 58t-63.5 22q-58 0 -89 -49l-98 73q2 4 6.5 11t22 24t37.5 30t54.5 24t73.5 11q101 0 160 -54.5t59 -143.5v-147q0 -29 30 -29h20v-127z
M316 750l72 -77l-156 -145l-71 77zM249 100q43 0 75 26t46 68q-52 10 -77 10q-45 0 -73 -15t-28 -44q0 -21 15 -33t42 -12z" />
    <glyph glyph-name="acircumflex" unicode="&#xe2;" horiz-adv-x="579" 
d="M559 0h-49q-87 0 -123 83q-23 -39 -68 -66t-106 -27q-77 0 -120 42t-43 101q0 66 53 113t149 47q55 0 118 -12v16q0 36 -23.5 58t-63.5 22q-58 0 -89 -49l-98 73q2 4 6.5 11t22 24t37.5 30t54.5 24t73.5 11q101 0 160 -54.5t59 -143.5v-147q0 -29 30 -29h20v-127z
M225 518l-77 77l105 105h77l106 -105l-76 -77l-68 78zM249 100q43 0 75 26.5t46 67.5q-52 10 -77 10q-45 0 -73 -15t-28 -44q0 -21 15 -33t42 -12z" />
    <glyph glyph-name="atilde" unicode="&#xe3;" horiz-adv-x="579" 
d="M559 0h-49q-87 0 -123 83q-23 -39 -68 -66t-106 -27q-77 0 -120 42t-43 101q0 66 53 113t149 47q55 0 118 -12v16q0 36 -23.5 58t-63.5 22q-58 0 -89 -49l-98 73q2 4 6.5 11t22 24t37.5 30t54.5 24t73.5 11q101 0 160 -54.5t59 -143.5v-147q0 -29 30 -29h20v-127z
M177 556l-59 76q42 52 110 52q23 0 70.5 -18.5t74.5 -18.5q7 0 13.5 1.5t11.5 3.5t10.5 6t8 6t6.5 6l5 5l62 -75q-21 -31 -46.5 -44t-64.5 -13q-27 0 -76 18.5t-72 18.5q-24 0 -54 -24zM249 100q43 0 75 26.5t46 67.5q-52 10 -77 10q-45 0 -73 -15t-28 -44q0 -21 15 -33
t42 -12z" />
    <glyph glyph-name="adieresis" unicode="&#xe4;" horiz-adv-x="579" 
d="M559 0h-49q-87 0 -123 83q-23 -39 -68 -66t-106 -27q-77 0 -120 42t-43 101q0 66 53 113t149 47q55 0 118 -12v16q0 36 -23.5 58t-63.5 22q-58 0 -89 -49l-98 73q2 4 6.5 11t22 24t37.5 30t54.5 24t73.5 11q101 0 160 -54.5t59 -143.5v-147q0 -29 30 -29h20v-127z
M133 622q0 28 19.5 48t48.5 20q28 0 48 -20t20 -48t-20 -47.5t-48 -19.5q-29 0 -48.5 19.5t-19.5 47.5zM320 622q0 28 20 48t48 20t48 -20t20 -48t-20 -47.5t-48 -19.5q-29 0 -48.5 19.5t-19.5 47.5zM249 100q43 0 75 26t46 68q-52 10 -77 10q-45 0 -73 -15t-28 -44
q0 -21 15 -33t42 -12z" />
    <glyph glyph-name="aring" unicode="&#xe5;" horiz-adv-x="579" 
d="M559 0h-49q-87 0 -123 83q-23 -39 -68 -66t-106 -27q-77 0 -120 42t-43 101q0 66 53 113t149 47q55 0 118 -12v16q0 36 -23.5 58t-63.5 22q-58 0 -89 -49l-98 73q2 4 6.5 11t22 24t37.5 30t54.5 24t73.5 11q101 0 160 -54.5t59 -143.5v-147q0 -29 30 -29h20v-127z
M175 641q0 49 34.5 83.5t83.5 34.5t83.5 -34.5t34.5 -83.5t-34.5 -83.5t-83.5 -34.5t-83.5 34.5t-34.5 83.5zM249 100q43 0 75 26t46 68q-52 10 -77 10q-45 0 -73 -15t-28 -44q0 -21 15 -33t42 -12zM254 641q0 -16 11.5 -27.5t27.5 -11.5t27 11.5t11 27.5t-11 27t-27 11
t-27.5 -11t-11.5 -27z" />
    <glyph glyph-name="ae" unicode="&#xe6;" horiz-adv-x="897" 
d="M619 -10q-125 0 -184 107q-28 -49 -81 -78t-121 -29q-88 0 -135.5 38.5t-47.5 104.5t53 113t149 47q72 0 118 -15v19q0 36 -23.5 58t-63.5 22q-58 0 -89 -49l-98 73q2 4 6.5 11t22 24t37.5 30t54.5 24t73.5 11q120 0 159 -87q60 85 176 85q104 0 157 -74.5t53 -193.5v-17
h-332q5 -56 35.5 -83.5t78.5 -27.5q74 0 115 60l93 -67q-79 -106 -206 -106zM253 91q54 0 83 36t33 81q-47 9 -76 9q-43 0 -72 -21t-29 -51q0 -22 15.5 -38t45.5 -16zM699 300q-6 40 -33.5 62.5t-61.5 22.5t-62 -22.5t-36 -62.5h193z" />
    <glyph glyph-name="ccedilla" unicode="&#xe7;" horiz-adv-x="525" 
d="M196 -204l68 53q10 -12 24 -12q23 0 23 24q0 26 -24 26q-15 0 -23 -15l-63 28v108q-72 27 -114.5 91t-42.5 146q0 108 71 181t179 73q109 0 185 -86l-97 -90q-22 24 -40.5 35t-46.5 11q-49 0 -80 -35t-31 -89q0 -56 31 -89t80 -33q55 0 91 52l105 -80q-76 -104 -196 -104
q-11 0 -16 1v-42q13 6 29 6q49 0 76.5 -30t27.5 -71q0 -43 -30 -75t-83 -32q-69 0 -103 48z" />
    <glyph glyph-name="egrave" unicode="&#xe8;" horiz-adv-x="542" 
d="M282 -10q-108 0 -178 71.5t-70 183.5q0 107 67 180.5t177 73.5q117 0 173.5 -73.5t56.5 -194.5v-17h-333q7 -57 38.5 -84t76.5 -27q74 0 115 60l93 -67q-41 -56 -89 -81t-127 -25zM168 673l72 77l155 -145l-71 -77zM277 385q-35 0 -61.5 -22t-36.5 -63h193
q-6 40 -33.5 62.5t-61.5 22.5z" />
    <glyph glyph-name="eacute" unicode="&#xe9;" horiz-adv-x="542" 
d="M508 214h-333q7 -57 38.5 -84t76.5 -27q74 0 115 60l93 -67q-41 -56 -89 -81t-127 -25q-108 0 -178 71.5t-70 183.5q0 107 67 180.5t177 73.5q117 0 173.5 -73.5t56.5 -194.5v-17zM302 750l72 -77l-156 -145l-71 77zM277 385q-35 0 -61.5 -22t-36.5 -63h193
q-6 40 -33.5 62.5t-61.5 22.5z" />
    <glyph glyph-name="ecircumflex" unicode="&#xea;" horiz-adv-x="542" 
d="M508 214h-333q7 -57 38.5 -84t76.5 -27q74 0 115 60l93 -67q-41 -56 -89 -81t-127 -25q-108 0 -178 71.5t-70 183.5q0 107 67 180.5t177 73.5q117 0 173.5 -73.5t56.5 -194.5v-17zM206 518l-77 77l105 105h77l106 -105l-76 -77l-68 78zM277 385q-35 0 -61.5 -22
t-36.5 -63h193q-6 40 -33.5 62.5t-61.5 22.5z" />
    <glyph glyph-name="edieresis" unicode="&#xeb;" horiz-adv-x="542" 
d="M282 -10q-108 0 -178 71.5t-70 183.5q0 107 67 180.5t177 73.5q117 0 173.5 -73.5t56.5 -194.5v-17h-333q7 -57 38.5 -84t76.5 -27q74 0 115 60l93 -67q-41 -56 -89 -81t-127 -25zM110 622q0 28 20 48t48 20t48 -20t20 -48t-20 -47.5t-48 -19.5q-29 0 -48.5 19.5
t-19.5 47.5zM297 622q0 28 19.5 48t48.5 20q28 0 48 -20t20 -48t-20 -47.5t-48 -19.5q-29 0 -48.5 19.5t-19.5 47.5zM277 385q-35 0 -61.5 -22t-36.5 -63h193q-6 40 -33.5 62.5t-61.5 22.5z" />
    <glyph glyph-name="igrave" unicode="&#xec;" horiz-adv-x="269" 
d="M-32 673l72 77l155 -145l-71 -77zM205 0h-143v488h143v-488z" />
    <glyph glyph-name="iacute" unicode="&#xed;" horiz-adv-x="273" 
d="M225 750l72 -77l-156 -145l-71 77zM207 0h-143v488h143v-488z" />
    <glyph glyph-name="icircumflex" unicode="&#xee;" horiz-adv-x="287" 
d="M212 0h-143v488h143v-488zM74 518l-77 77l105 105h77l106 -105l-76 -77l-68 78z" />
    <glyph glyph-name="idieresis" unicode="&#xef;" horiz-adv-x="284" 
d="M-19 622q0 28 19.5 48t48.5 20q28 0 48 -20t20 -48t-20 -47.5t-48 -19.5q-29 0 -48.5 19.5t-19.5 47.5zM168 622q0 28 20 48t48 20t48 -20t20 -48t-20 -47.5t-48 -19.5q-29 0 -48.5 19.5t-19.5 47.5zM215 0h-143v488h143v-488z" />
    <glyph glyph-name="eth" unicode="&#xf0;" horiz-adv-x="558" 
d="M250 512l-89 47l28 52q-35 16 -71 27l52 118q35 -11 80 -31l33 62l102 -62l-38 -59q177 -135 177 -385q0 -129 -63.5 -209.5t-181.5 -80.5q-113 0 -179 73.5t-66 182.5q0 99 56 166t154 67q69 0 120 -47l2 2q-24 60 -90 118zM281 115q54 0 81 37t27 91q0 55 -27.5 91.5
t-81.5 36.5q-53 0 -79 -36t-26 -90t27 -92t79 -38z" />
    <glyph glyph-name="ntilde" unicode="&#xf1;" horiz-adv-x="590" 
d="M204 0v286q1 46 29 72.5t62 26.5q38 0 64 -27t26 -76v-282h141v290q0 96 -50 153t-127 57q-93 0 -148 -79q3 21 3 34v33h-140v-488h140zM189 556l-59 76q42 52 110 52q23 0 70.5 -18.5t74.5 -18.5q7 0 13.5 1.5t11.5 3.5t10.5 6t8 6t6.5 6l5 5l62 -75q-21 -31 -46.5 -44
t-64.5 -13q-27 0 -76 18.5t-72 18.5q-24 0 -54 -24z" />
    <glyph glyph-name="ograve" unicode="&#xf2;" horiz-adv-x="578" 
d="M289 -9q-108 0 -181.5 73t-73.5 181t73.5 181t181.5 73t181.5 -73t73.5 -181t-73.5 -181t-181.5 -73zM289 115q53 0 85.5 36.5t32.5 93.5q0 56 -32.5 92.5t-85.5 36.5t-86 -36.5t-33 -92.5q0 -57 33.5 -93.5t85.5 -36.5zM180 673l72 77l155 -145l-71 -77z" />
    <glyph glyph-name="oacute" unicode="&#xf3;" horiz-adv-x="578" 
d="M289 -9q-108 0 -181.5 73t-73.5 181t73.5 181t181.5 73t181.5 -73t73.5 -181t-73.5 -181t-181.5 -73zM289 115q53 0 85.5 36.5t32.5 93.5q0 56 -32.5 92.5t-85.5 36.5t-86 -36.5t-33 -92.5q0 -57 33.5 -93.5t85.5 -36.5zM314 750l72 -77l-156 -145l-71 77z" />
    <glyph glyph-name="ocircumflex" unicode="&#xf4;" horiz-adv-x="578" 
d="M289 -9q-108 0 -181.5 73t-73.5 181t73.5 181t181.5 73t181.5 -73t73.5 -181t-73.5 -181t-181.5 -73zM289 115q53 0 85.5 36.5t32.5 93.5q0 56 -32.5 92.5t-85.5 36.5t-86 -36.5t-33 -92.5q0 -57 33.5 -93.5t85.5 -36.5zM218 518l-77 77l105 105h77l106 -105l-76 -77
l-68 78z" />
    <glyph glyph-name="otilde" unicode="&#xf5;" horiz-adv-x="578" 
d="M289 -9q-108 0 -181.5 73t-73.5 181t73.5 181t181.5 73t181.5 -73t73.5 -181t-73.5 -181t-181.5 -73zM289 115q53 0 85.5 36.5t32.5 93.5q0 56 -32.5 92.5t-85.5 36.5t-86 -36.5t-33 -92.5q0 -57 33.5 -93.5t85.5 -36.5zM175 556l-59 76q42 52 110 52q23 0 70.5 -18.5
t74.5 -18.5q7 0 13.5 1.5t11.5 3.5t10.5 6t8 6t6.5 6l5 5l62 -75q-21 -31 -46.5 -44t-64.5 -13q-27 0 -76 18.5t-72 18.5q-24 0 -54 -24z" />
    <glyph glyph-name="odieresis" unicode="&#xf6;" horiz-adv-x="578" 
d="M289 -9q-108 0 -181.5 73t-73.5 181t73.5 181t181.5 73t181.5 -73t73.5 -181t-73.5 -181t-181.5 -73zM289 115q53 0 85.5 36.5t32.5 93.5q0 56 -32.5 92.5t-85.5 36.5t-86 -36.5t-33 -92.5q0 -57 33.5 -93.5t85.5 -36.5zM123 622q0 28 19.5 48t48.5 20q28 0 48 -20
t20 -48t-20 -47.5t-48 -19.5q-29 0 -48.5 19.5t-19.5 47.5zM310 622q0 28 20 48t48 20t48 -20t20 -48t-20 -47.5t-48 -19.5q-29 0 -48.5 19.5t-19.5 47.5z" />
    <glyph glyph-name="divide" unicode="&#xf7;" horiz-adv-x="412" 
d="M130 219q0 31 22.5 53.5t53.5 22.5t53.5 -22.5t22.5 -53.5t-22.5 -53.5t-53.5 -22.5q-32 0 -54 22.5t-22 53.5zM20 326v98h372v-98h-372zM130 532q0 31 22.5 53.5t53.5 22.5t53.5 -22.5t22.5 -53.5t-22.5 -53.5t-53.5 -22.5q-32 0 -54 22t-22 54z" />
    <glyph glyph-name="oslash" unicode="&#xf8;" horiz-adv-x="578" 
d="M289 -10q-108 0 -181.5 73t-73.5 181t73.5 181t181.5 73t181.5 -73t73.5 -181t-73.5 -181t-181.5 -73zM289 114q53 0 85.5 36.5t32.5 93.5q0 56 -33 92l-127 -215q18 -7 42 -7zM170 244q0 -54 28 -88l126 212q-18 5 -35 5q-53 0 -86 -36.5t-33 -92.5z" />
    <glyph glyph-name="ugrave" unicode="&#xf9;" horiz-adv-x="530" 
d="M504 0v488h-140v-281q0 -49 -28 -76.5t-63 -27.5q-38 0 -64 27t-26 76v282h-141v-290q0 -96 50 -153t127 -57q93 0 148 79q-3 -21 -3 -34v-33h140zM159 673l72 77l155 -145l-71 -77z" />
    <glyph glyph-name="uacute" unicode="&#xfa;" horiz-adv-x="530" 
d="M504 0v488h-140v-286q-2 -47 -29.5 -73t-61.5 -26q-38 0 -64 27t-26 76v282h-141v-290q0 -96 50 -153t127 -57q93 0 148 79q-3 -21 -3 -34v-33h140zM293 760l72 -77l-156 -145l-71 77z" />
    <glyph glyph-name="ucircumflex" unicode="&#xfb;" horiz-adv-x="530" 
d="M504 0v488h-140v-286q-2 -47 -29.5 -73t-61.5 -26q-38 0 -64 27t-26 76v282h-141v-290q0 -96 50 -153t127 -57q93 0 148 79q-3 -21 -3 -34v-33h140zM207 518l-77 77l105 105h77l106 -105l-76 -77l-68 78z" />
    <glyph glyph-name="udieresis" unicode="&#xfc;" horiz-adv-x="530" 
d="M504 0v488h-140v-286q-2 -47 -29.5 -73t-61.5 -26q-38 0 -64 27t-26 76v282h-141v-290q0 -96 50 -153t127 -57q93 0 148 79q-3 -21 -3 -34v-33h140zM302 622q0 28 20 48t48 20t48 -20t20 -48t-20 -47.5t-48 -19.5q-29 0 -48.5 19.5t-19.5 47.5zM115 622q0 28 19.5 48
t48.5 20q28 0 48 -20t20 -48t-20 -47.5t-48 -19.5q-29 0 -48.5 19.5t-19.5 47.5z" />
    <glyph glyph-name="yacute" unicode="&#xfd;" horiz-adv-x="482" 
d="M29 -273l144 327l-182 434h147l94 -228q4 -9 7.5 -20.5t6.5 -20.5l2 -9q0 8 18 50l98 228h148l-337 -761h-146zM269 750l72 -77l-156 -145l-71 77z" />
    <glyph glyph-name="thorn" unicode="&#xfe;" horiz-adv-x="592" 
d="M199 -250h-135v1000h140v-311q57 60 142 60q97 0 154.5 -75t57.5 -178q0 -105 -56.5 -180.5t-154.5 -75.5q-87 0 -148 74v-314zM310 114q52 0 80.5 37t28.5 93q0 57 -28 93.5t-81 36.5q-48 0 -78 -36t-30 -93q0 -52 30.5 -91.5t77.5 -39.5z" />
    <glyph glyph-name="ydieresis" unicode="&#xff;" horiz-adv-x="482" 
d="M29 -273l144 327l-182 434h147l94 -228q4 -9 7.5 -20.5t6.5 -20.5l2 -9q0 8 18 50l98 228h148l-337 -761h-146zM272 622q0 28 20 48t48 20t48 -20t20 -48t-20 -47.5t-48 -19.5q-29 0 -48.5 19.5t-19.5 47.5zM85 622q0 28 19.5 48t48.5 20q28 0 48 -20t20 -48t-20 -47.5
t-48 -19.5q-29 0 -48.5 19.5t-19.5 47.5z" />
    <glyph glyph-name="dotlessi" unicode="&#x131;" horiz-adv-x="214" 
d="M179 0h-143v488h143v-488z" />
    <glyph glyph-name="Lslash" unicode="&#x141;" horiz-adv-x="479" 
d="M20 253l-31 103l83 24v320h142v-277l115 34l30 -104l-145 -43v-180h247v-130h-389v268z" />
    <glyph glyph-name="lslash" unicode="&#x142;" horiz-adv-x="190" 
d="M-9 263l-29 99l79 23v387h142v-345l5 2l29 -99l-34 -10v-298h-142v256z" />
    <glyph glyph-name="OE" unicode="&#x152;" horiz-adv-x="824" 
d="M757 0h-426q-150 0 -253 100.5t-103 249.5q0 147 103.5 248.5t252.5 101.5h426v-127h-284v-140h199v-126h-199v-180h284v-127zM331 128v444q-92 0 -152 -61.5t-60 -160.5q0 -100 60 -161t152 -61z" />
    <glyph glyph-name="oe" unicode="&#x153;" horiz-adv-x="885" 
d="M637 -10q-123 0 -182 104q-30 -49 -78.5 -76.5t-105.5 -27.5q-101 0 -173.5 71t-72.5 184q0 111 71.5 182.5t169.5 71.5q58 0 107.5 -27t81.5 -77q59 104 188 104q104 0 157 -74.5t53 -193.5v-17h-332q5 -56 35.5 -83.5t78.5 -27.5q74 0 115 60l93 -67
q-79 -106 -206 -106zM280 115q53 0 85.5 36.5t32.5 93.5q0 56 -32.5 92.5t-85.5 36.5t-86 -36.5t-33 -92.5q0 -57 33.5 -93.5t85.5 -36.5zM717 300q-6 40 -33.5 62.5t-61.5 22.5t-62 -22.5t-36 -62.5h193z" />
    <glyph glyph-name="Scaron" unicode="&#x160;" horiz-adv-x="493" 
d="M244 -9q-78 0 -140.5 33.5t-96.5 100.5l115 82q43 -84 123 -84q34 0 56 21t22 53q0 28 -28 55.5t-67.5 53t-79 55t-67.5 73.5t-28 96q0 78 56.5 129t132.5 51q114 0 174 -93l-96 -85q-32 48 -72 48q-22 0 -36.5 -14.5t-14.5 -36.5q0 -20 20 -41.5t50 -39.5t64.5 -43.5
t64.5 -52t50 -67t20 -86.5q0 -90 -62.5 -149t-159.5 -59zM103 872l77 76l66 -78q2 2 9.5 10t12.5 14l46 54q12 -11 24.5 -24t28 -28.5l24.5 -24.5l-107 -105h-77q-17 18 -52 53t-52 53z" />
    <glyph glyph-name="scaron" unicode="&#x161;" horiz-adv-x="453" 
d="M20 72l79 92q48 -55 135 -55q23 0 37.5 8.5t14.5 21.5q0 18 -16 28.5t-50 20.5q-170 49 -170 163q0 67 53 107t120 40q102 0 170 -71l-78 -84q-16 18 -42 31t-47 13q-20 0 -32.5 -8.5t-12.5 -22.5q0 -17 17.5 -27.5t54.5 -21.5q169 -50 169 -161q0 -69 -53 -112.5
t-136 -43.5q-137 0 -213 82zM80 653l77 76l66 -78q2 2 9.5 10t12.5 14l46 54q12 -11 24.5 -24t28 -28.5l24.5 -24.5l-107 -105h-77q-17 18 -52 53t-52 53z" />
    <glyph glyph-name="Ydieresis" unicode="&#x178;" horiz-adv-x="489" 
d="M316 0h-142v295l-198 405h159l87 -211q6 -12 11 -26t8.5 -24t3.5 -11q14 41 23 61l97 211h160l-209 -406v-294zM81 866q0 28 19.5 48t48.5 20q28 0 48 -20t20 -48t-20 -47.5t-48 -19.5q-29 0 -48.5 19.5t-19.5 47.5zM268 866q0 28 20 48t48 20t48 -20t20 -48t-20 -47.5
t-48 -19.5q-29 0 -48.5 19.5t-19.5 47.5z" />
    <glyph glyph-name="Zcaron" unicode="&#x17d;" horiz-adv-x="580" 
d="M530 0h-488v106l277 419l33 45q-28 -2 -55 -2h-240v132h473v-107l-281 -426l-28 -38q22 3 47 3h262v-132zM146 872l77 76l66 -78q2 2 9.5 10t12.5 14l46 54q12 -11 24.5 -24t28 -28.5l24.5 -24.5l-107 -105h-77q-17 18 -52 53t-52 53z" />
    <glyph glyph-name="zcaron" unicode="&#x17e;" horiz-adv-x="490" 
d="M20 88l226 252q14 17 32 30q-1 0 -8 -1t-17 -2t-18 -1h-200v122h423v-89l-226 -249q-20 -22 -36 -33l8 1q7 2 19 3t24 1h211v-122h-438v88zM101 628l77 76l66 -78q2 2 9.5 10t12.5 14l46 54q12 -11 24.5 -24t28 -28.5l24.5 -24.5l-107 -105h-77q-17 18 -52 53t-52 53z
" />
    <glyph glyph-name="florin" unicode="&#x192;" horiz-adv-x="445" 
d="M-3 -200q-22 0 -46 6l21 131q12 -2 17 -2q27 0 40 13t17 43l45 367h-66l15 130h68l6 49q28 225 192 225q140 0 183 -130l-115 -48q-15 48 -55 48q-25 0 -40.5 -23t-19.5 -58l-8 -63h84l-15 -130h-86l-46 -366q-13 -100 -58.5 -146t-132.5 -46z" />
    <glyph glyph-name="circumflex" unicode="&#x2c6;" horiz-adv-x="294" 
d="M78 518l-77 77l105 105h77l106 -105l-76 -77l-68 78z" />
    <glyph glyph-name="caron" unicode="&#x2c7;" horiz-adv-x="293" 
d="M2 628l77 76l66 -78q2 2 9.5 10t12.5 14l46 54q12 -11 24.5 -24t28 -28.5l24.5 -24.5l-107 -105h-77q-17 18 -52 53t-52 53z" />
    <glyph glyph-name="ring" unicode="&#x2da;" horiz-adv-x="269" 
d="M100 751q0 -16 11.5 -27.5t27.5 -11.5t27 11.5t11 27.5t-11 27t-27 11t-27.5 -11t-11.5 -27zM21 751q0 49 34.5 83.5t83.5 34.5t83.5 -34.5t34.5 -83.5t-34.5 -83.5t-83.5 -34.5t-83.5 34.5t-34.5 83.5z" />
    <glyph glyph-name="tilde" unicode="&#x2dc;" horiz-adv-x="476" 
d="M102 536l-59 76q42 52 110 52q23 0 70.5 -18.5t74.5 -18.5q24 0 55 28l62 -75q-21 -31 -46.5 -44t-64.5 -13q-27 0 -76 18.5t-72 18.5q-24 0 -54 -24z" />
    <glyph glyph-name="endash" unicode="&#x2013;" horiz-adv-x="483" 
d="M443 326h-403v108h403v-108z" />
    <glyph glyph-name="emdash" unicode="&#x2014;" horiz-adv-x="563" 
d="M523 326h-483v108h483v-108z" />
    <glyph glyph-name="quoteleft" unicode="&#x2018;" horiz-adv-x="191" 
d="M103 626q33 -4 53 -22.5t20 -49.5q0 -29 -22 -51t-54 -22q-40 0 -61.5 26.5t-21.5 68.5q0 52 30.5 98.5t81.5 64.5l31 -56q-40 -21 -57 -57z" />
    <glyph glyph-name="quoteright" unicode="&#x2019;" horiz-adv-x="187" 
d="M86 559q-33 4 -53 23t-20 50q0 28 22 50.5t54 22.5q40 0 61.5 -27.5t21.5 -69.5q0 -51 -31 -97.5t-81 -63.5l-31 55q44 25 57 57z" />
    <glyph glyph-name="quotesinglbase" unicode="&#x201a;" horiz-adv-x="187" 
d="M86 -1q-33 4 -53 23t-20 50q0 28 22 50.5t54 22.5q40 0 61.5 -27.5t21.5 -69.5q0 -51 -31 -97.5t-81 -63.5l-31 55q44 25 57 57z" />
    <glyph glyph-name="quotedblleft" unicode="&#x201c;" horiz-adv-x="376" 
d="M316 739l32 -56q-41 -21 -58 -57q33 -4 53 -22.5t20 -49.5q0 -29 -21.5 -51t-54.5 -22q-40 0 -61.5 27t-21.5 69q0 51 31 98t81 64zM126 739l32 -56q-41 -21 -58 -57q33 -4 53 -22.5t20 -49.5q0 -29 -21.5 -51t-54.5 -22q-40 0 -61.5 27t-21.5 69q0 51 31 98t81 64z" />
    <glyph glyph-name="quotedblright" unicode="&#x201d;" horiz-adv-x="377" 
d="M61 451l-32 56q41 21 58 57q-33 4 -53 22.5t-20 49.5q0 29 21.5 51t54.5 22q40 0 61.5 -27t21.5 -69q0 -51 -31 -98t-81 -64zM251 451l-32 56q41 21 58 57q-33 4 -53 22.5t-20 49.5q0 29 21.5 51t54.5 22q40 0 61.5 -27t21.5 -69q0 -51 -31 -98t-81 -64z" />
    <glyph glyph-name="quotedblbase" unicode="&#x201e;" horiz-adv-x="377" 
d="M61 -109l-32 56q41 21 58 57q-33 4 -53 22.5t-20 49.5q0 29 21.5 51t54.5 22q40 0 61.5 -27t21.5 -69q0 -51 -31 -98t-81 -64zM251 -109l-32 56q41 21 58 57q-33 4 -53 22.5t-20 49.5q0 29 21.5 51t54.5 22q40 0 61.5 -27t21.5 -69q0 -51 -31 -98t-81 -64z" />
    <glyph glyph-name="dagger" unicode="&#x2020;" horiz-adv-x="388" 
d="M66 381l-59 76q42 52 110 52h6v241h122v-277q5 -1 17 -1q24 0 55 28l62 -75q-21 -31 -46.5 -44t-64.5 -13q-16 0 -23 2v-490h-122v525h-3q-24 0 -54 -24z" />
    <glyph glyph-name="daggerdbl" unicode="&#x2021;" horiz-adv-x="384" 
d="M39 366l-59 76q42 52 110 52q13 0 30 -5v261h122v-293q19 2 48 28l62 -75q-39 -57 -110 -57v-66h12q24 0 55 28l62 -75q-21 -31 -46.5 -44t-64.5 -13q-12 0 -18 1v-304h-122v339q-2 0 -4.5 0.5t-3.5 0.5q-24 0 -54 -24l-59 76q42 52 110 52q7 0 11 -1v63q-18 4 -27 4
q-24 0 -54 -24z" />
    <glyph glyph-name="bullet" unicode="&#x2022;" horiz-adv-x="286" 
d="M21 362q0 48 33.5 81.5t81.5 33.5q47 0 81 -33.5t34 -81.5q0 -47 -34 -81t-81 -34q-48 0 -81.5 34t-33.5 81zM108 362q0 -11 8.5 -19t19.5 -8t18.5 8t7.5 19t-7.5 19t-18.5 8t-19.5 -8t-8.5 -19z" />
    <glyph glyph-name="ellipsis" unicode="&#x2026;" horiz-adv-x="764" 
d="M42 83q0 37 27 64.5t65 27.5t65 -27.5t27 -64.5t-27 -64.5t-65 -27.5t-65 27.5t-27 64.5zM270 83q0 37 27 64.5t65 27.5t65 -27.5t27 -64.5t-27 -64.5t-65 -27.5t-65 27.5t-27 64.5zM498 83q0 37 27 64.5t65 27.5t65 -27.5t27 -64.5t-27 -64.5t-65 -27.5t-65 27.5
t-27 64.5z" />
    <glyph glyph-name="perthousand" unicode="&#x2030;" horiz-adv-x="844" 
d="M206 0h-137l479 700h137zM178 392q-65 0 -110.5 45.5t-45.5 110.5q0 66 45.5 111.5t110.5 45.5t110.5 -45.5t45.5 -111.5q0 -65 -45.5 -110.5t-110.5 -45.5zM178 490q24 0 41.5 17t17.5 41q0 25 -17.5 42t-41.5 17q-25 0 -42 -17t-17 -42q0 -24 17 -41t42 -17zM548 -5
q-65 0 -110.5 45.5t-45.5 110.5t45.5 110.5t110.5 45.5t110.5 -45.5t45.5 -110.5t-45.5 -110.5t-110.5 -45.5zM548 92q24 0 41.5 17t17.5 42q0 24 -17.5 41.5t-41.5 17.5q-25 0 -42 -17.5t-17 -41.5q0 -25 17 -42t42 -17zM891 -5q-65 0 -110.5 45.5t-45.5 110.5t45.5 110.5
t110.5 45.5t110.5 -45.5t45.5 -110.5t-45.5 -110.5t-110.5 -45.5zM891 92q24 0 41.5 17t17.5 42q0 24 -17.5 41.5t-41.5 17.5q-25 0 -42 -17.5t-17 -41.5q0 -25 17 -42t42 -17z" />
    <glyph glyph-name="guilsinglleft" unicode="&#x2039;" horiz-adv-x="373" 
d="M342 206l-76 -76l-246 248l246 246l76 -76l-171 -170l32 -32z" />
    <glyph glyph-name="guilsinglright" unicode="&#x203a;" horiz-adv-x="369" 
d="M105 130l-75 76l171 172l-171 170l75 76l247 -246z" />
    <glyph glyph-name="fraction" unicode="&#x2044;" horiz-adv-x="489" 
d="M-27 0l374 700h130l-374 -700h-130z" />
    <glyph glyph-name="Euro" unicode="&#x20ac;" horiz-adv-x="752" 
d="M690 122q-111 -132 -275 -132q-123 0 -217.5 73t-125.5 188h-47v76h35q-1 7 -1 23q0 29 2 44h-36v76h54q37 105 129 172t207 67q161 0 268 -124l-106 -92q-76 79 -163 79q-57 0 -104 -27.5t-75 -74.5h325v-76h-354q-3 -21 -3 -44q0 -16 1 -23h356v-76h-337
q26 -57 76.5 -90.5t114.5 -33.5q90 0 166 83z" />
    <glyph glyph-name="trademark" unicode="&#x2122;" horiz-adv-x="624" 
d="M562 770l46 -306h-84l-17 156q-1 8 -2 19.5t-1 14.5q-4 -20 -8 -34l-45 -156h-72l-44 156q-2 6 -3.5 13.5t-3 14t-1.5 7.5q0 -21 -2 -36l-17 -155h-84l45 306h93l47 -165q1 -2 6 -29q0 8 6 29l48 165h93zM156 464h-86v224h-57v81h198v-81h-55v-224z" />
    <glyph glyph-name="minus" unicode="&#x2212;" horiz-adv-x="443" 
d="M24 316v98h372v-98h-372z" />
    <glyph glyph-name="A.small" unicode="&#x2423;" horiz-adv-x="573" 
d="M416 0l-34 96h-187l-33 -96h-152l199 554h160l199 -554h-152zM289 403q-12 -74 -55 -195h109q-41 116 -54 195z" />
    <glyph glyph-name="ff" unicode="&#xfb00;" horiz-adv-x="687" 
d="M634 364h-103v-364h-142v364h-168v-364h-142v364h-70v124h70v88q0 85 52 135.5t128 50.5q50 0 89 -17l-46 -119q-14 8 -31 8q-50 0 -50 -68v-78h168v88q0 85 52 135.5t128 50.5q50 0 89 -17l-46 -119q-14 8 -31 8q-50 0 -50 -68v-78h103v-124z" />
    <glyph glyph-name="NULL" 
 />
    <glyph glyph-name="CR" horiz-adv-x="300" 
 />
    <glyph glyph-name="_0000" 
 />
    <glyph glyph-name="_0001" 
 />
    <glyph glyph-name="_0002" 
 />
    <glyph glyph-name="_0003" 
 />
    <glyph glyph-name="_0004" 
 />
    <glyph glyph-name="_0016" 
 />
    <glyph glyph-name="_0007" 
 />
    <glyph glyph-name="_0009" 
 />
    <glyph glyph-name="_0014" 
 />
    <glyph glyph-name="_0015" 
 />
    <glyph glyph-name="_0017" 
 />
    <glyph glyph-name="a.alt" horiz-adv-x="593" 
d="M529 0h-135v64q-63 -74 -148 -74q-98 0 -154.5 75.5t-56.5 180.5q0 103 57.5 178t154.5 75q85 0 142 -60v49h140v-488zM283 114q47 0 77.5 39.5t30.5 91.5q0 57 -30 93t-78 36q-53 0 -81 -36.5t-28 -93.5q0 -56 28.5 -93t80.5 -37z" />
    <glyph glyph-name="_0018" 
 />
    <glyph glyph-name="_0019" 
 />
    <glyph glyph-name="_0020" 
 />
    <glyph glyph-name="_0021" 
 />
    <glyph glyph-name="_0022" 
 />
    <glyph glyph-name="agrave.alt" horiz-adv-x="567" 
d="M523 0h-135v64q-63 -74 -148 -74q-98 0 -154.5 75.5t-56.5 180.5q0 103 57.5 178t154.5 75q85 0 142 -60v49h140v-488zM277 114q47 0 77.5 39.5t30.5 91.5q0 57 -30 93t-78 36q-53 0 -81 -36.5t-28 -93.5q0 -56 28.5 -93t80.5 -37zM140 673l72 77l155 -145l-71 -77z" />
    <glyph glyph-name="aacute.alt" horiz-adv-x="567" 
d="M523 0h-135v64q-63 -74 -148 -74q-98 0 -154.5 75.5t-56.5 180.5q0 103 57.5 178t154.5 75q85 0 142 -60v49h140v-488zM277 114q47 0 77.5 39.5t30.5 91.5q0 57 -30 93t-78 36q-53 0 -81 -36.5t-28 -93.5q0 -56 28.5 -93t80.5 -37zM300 750l72 -77l-156 -145l-71 77z" />
    <glyph glyph-name="acircumflex.alt" horiz-adv-x="567" 
d="M523 0h-135v64q-63 -74 -148 -74q-98 0 -154.5 75.5t-56.5 180.5q0 103 57.5 178t154.5 75q85 0 142 -60v49h140v-488zM277 114q47 0 77.5 39.5t30.5 91.5q0 57 -30 93t-78 36q-53 0 -81 -36.5t-28 -93.5q0 -56 28.5 -93t80.5 -37zM198 518l-77 77l105 105h77l106 -105
l-76 -77l-68 78z" />
    <glyph glyph-name="atilde.alt" horiz-adv-x="567" 
d="M523 0h-135v64q-63 -74 -148 -74q-98 0 -154.5 75.5t-56.5 180.5q0 103 57.5 178t154.5 75q85 0 142 -60v49h140v-488zM277 114q47 0 77.5 39.5t30.5 91.5q0 57 -30 93t-78 36q-53 0 -81 -36.5t-28 -93.5q0 -56 28.5 -93t80.5 -37zM162 566l-59 76q42 52 110 52
q23 0 70.5 -18.5t74.5 -18.5q24 0 55 28l62 -75q-21 -31 -46.5 -44t-64.5 -13q-27 0 -76 18.5t-72 18.5q-24 0 -54 -24z" />
    <glyph glyph-name="adieresis.alt" horiz-adv-x="567" 
d="M523 0h-135v64q-63 -74 -148 -74q-98 0 -154.5 75.5t-56.5 180.5q0 103 57.5 178t154.5 75q85 0 142 -60v49h140v-488zM277 114q47 0 77.5 39.5t30.5 91.5q0 57 -30 93t-78 36q-53 0 -81 -36.5t-28 -93.5q0 -56 28.5 -93t80.5 -37zM122 622q0 28 20 48t48 20t48 -20
t20 -48t-20 -47.5t-48 -19.5q-29 0 -48.5 19.5t-19.5 47.5zM309 622q0 28 19.5 48t48.5 20q28 0 48 -20t20 -48t-20 -47.5t-48 -19.5q-29 0 -48.5 19.5t-19.5 47.5z" />
    <glyph glyph-name="aring.alt" horiz-adv-x="567" 
d="M523 0h-135v64q-63 -74 -148 -74q-98 0 -154.5 75.5t-56.5 180.5q0 103 57.5 178t154.5 75q85 0 142 -60v49h140v-488zM277 114q47 0 77.5 39.5t30.5 91.5q0 57 -30 93t-78 36q-53 0 -81 -36.5t-28 -93.5q0 -56 28.5 -93t80.5 -37zM161 651q0 49 34.5 83.5t83.5 34.5
t83.5 -34.5t34.5 -83.5t-34.5 -83.5t-83.5 -34.5t-83.5 34.5t-34.5 83.5zM240 651q0 -16 11.5 -27.5t27.5 -11.5t27 11.5t11 27.5t-11 27t-27 11t-27.5 -11t-11.5 -27z" />
    <glyph glyph-name="B.small" horiz-adv-x="542" 
d="M332 0h-252v554h246q63 0 96.5 -43.5t29.5 -98.5t-40 -90q45 -20 71.5 -59.5t27 -84t-16 -85t-60 -67t-102.5 -26.5zM220 122h96q33 0 46.5 29t0.5 58t-46 29h-97v-116zM288 442h-68v-103h66q30 2 41 27.5t-1 50.5t-38 25z" />
    <glyph glyph-name="C.small" horiz-adv-x="573" 
d="M539 466l-100 -95q-26 29 -49 43t-57 14q-59 0 -97.5 -42.5t-38.5 -108.5q0 -68 38 -109t98 -41q65 0 111 64l109 -83q-85 -117 -221 -117q-122 0 -202 82.5t-80 203.5t79.5 204t201.5 83q120 0 208 -98z" />
    <glyph glyph-name="D.small" horiz-adv-x="609" 
d="M80 0v554h191q140 0 214 -73t74 -203q0 -123 -66.5 -200.5t-191.5 -77.5h-221zM220 130h76q61 0 92 40t31 107q0 71 -34 109t-100 38h-65v-294z" />
    <glyph glyph-name="E.small" horiz-adv-x="544" 
d="M484 130v-130h-404v554h404v-130h-264v-74h203v-120h-203v-100h264z" />
    <glyph glyph-name="F.small" horiz-adv-x="504" 
d="M220 0h-140v554h404v-130h-264v-94h203v-120h-203v-210z" />
    <glyph glyph-name="G.small" horiz-adv-x="617" 
d="M553 101q-80 -110 -221 -110q-122 0 -202 82.5t-80 203.5t79.5 204t201.5 83q120 0 208 -98l-100 -95q-26 29 -49 43t-57 14q-59 0 -97.5 -42.5t-38.5 -108.5q0 -68 38 -109t98 -41q59 0 97 40v37h-90v111h213v-214z" />
    <glyph glyph-name="H.small" horiz-adv-x="585" 
d="M505 0h-140v224h-145v-224h-140v554h140v-200h145v200h140v-554z" />
    <glyph glyph-name="I.small" horiz-adv-x="389" 
d="M329 0h-269v130h65v294h-65v130h269v-130h-64v-294h64v-130z" />
    <glyph glyph-name="J.small" horiz-adv-x="372" 
d="M22 0l34 130q17 -5 29 -5q31 0 50.5 23t19.5 61v345h143v-339q0 -98 -51 -161t-157 -63q-36 0 -68 9z" />
    <glyph glyph-name="K.small" horiz-adv-x="593" 
d="M583 0h-168l-117 201q-9 15 -14 31l-62 -79v-153h-142v554h142v-149l-2 -56q16 24 34 47l122 158h161l-166 -211z" />
    <glyph glyph-name="L.small" horiz-adv-x="474" 
d="M444 130v-130h-364v554h140v-424h224z" />
    <glyph glyph-name="M.small" horiz-adv-x="827" 
d="M692 554l81 -554h-153l-28 249q-8 76 -8 117q-12 -75 -24 -110l-83 -256h-124l-83 256q-22 67 -28 109q0 -67 -6 -116l-29 -249h-153l82 554h176l89 -276q4 -11 13 -67q12 63 14 67l88 276h176z" />
    <glyph glyph-name="N.small" horiz-adv-x="587" 
d="M507 554v-554h-135v105l-131 174l-32 52q3 -34 3 -61v-270h-132v554h131l136 -193q5 -8 11 -18.5t10.5 -18.5t5.5 -9q0 1 -0.5 9.5t-1 21.5t-0.5 23v185h135z" />
    <glyph glyph-name="O.small" horiz-adv-x="677" 
d="M338 -9q-122 0 -205 82t-83 205q0 122 83 204t205 82t205.5 -82t83.5 -204t-83.5 -204.5t-205.5 -82.5zM338 119q65 0 105.5 45t40.5 114t-40.5 113.5t-105.5 44.5t-106 -44.5t-41 -113.5t41.5 -114t105.5 -45z" />
    <glyph glyph-name="P.small" horiz-adv-x="561" 
d="M222 0h-142v554h221q107 0 166.5 -51t59.5 -154t-59.5 -153.5t-166.5 -50.5h-79v-145zM289 275q101 0 101 74q0 75 -101 75h-67v-149h67z" />
    <glyph glyph-name="Q.small" horiz-adv-x="692" 
d="M338 -9q-122 0 -205 82t-83 205q0 122 83 204t205 82t205.5 -82t83.5 -204q0 -86 -45 -157l60 -60l-80 -79l-59 58q-73 -49 -165 -49zM338 119q39 0 70 17l-69 69l80 79l58 -58q7 28 7 52q0 69 -40.5 113.5t-105.5 44.5t-106 -44.5t-41 -113.5t41.5 -114t105.5 -45z" />
    <glyph glyph-name="R.small" horiz-adv-x="585" 
d="M222 0h-142v554h221q107 0 166.5 -51t59.5 -154q0 -124 -88 -174l96 -175h-151l-73 145h-10h-79v-145zM289 275q101 0 101 74q0 75 -101 75h-67v-149h67z" />
    <glyph glyph-name="S.small" horiz-adv-x="517" 
d="M54 131l128 53q22 -58 76 -58q22 0 34.5 11.5t12.5 27.5q0 18 -24 32t-58.5 28t-69 32.5t-58.5 55t-24 86.5q0 76 57 120.5t132 44.5q59 0 98.5 -19.5t80.5 -62.5l-98 -84q-15 16 -23.5 23.5t-22 14t-29.5 6.5q-21 0 -34 -10.5t-13 -26.5t18 -30t45 -24t59 -26t59 -34
t45 -50.5t18 -73.5q0 -79 -57 -128t-150 -49q-70 0 -125.5 34.5t-76.5 106.5z" />
    <glyph glyph-name="T.small" horiz-adv-x="418" 
d="M279 0h-140v424h-115v130h370v-130h-115v-424z" />
    <glyph glyph-name="U.small" horiz-adv-x="583" 
d="M291 122q74 0 74 108v324h144v-315q0 -124 -59 -186.5t-159 -62.5q-99 0 -158 62.5t-59 186.5v315h144v-324q0 -108 73 -108z" />
    <glyph glyph-name="V.small" horiz-adv-x="530" 
d="M265 148h2q-3 13 43 189l58 217h152l-174 -554h-160l-176 554h152l60 -217q47 -170 43 -189z" />
    <glyph glyph-name="W.small" horiz-adv-x="823" 
d="M809 554l-204 -554h-151l-28 85q-11 34 -16 62q0 -1 -2.5 -10.5t-6 -24.5t-7.5 -27l-30 -86h-146l-208 555h149l120 -329q6 -17 22 -81q18 71 21 80l15 43l-107 287h131l33 -95q11 -34 17 -68q8 40 17 68l34 95h129l-107 -287l15 -42q5 -15 10 -34.5t8 -32.5l3 -13
q16 65 22 80l120 329h147z" />
    <glyph glyph-name="X.small" horiz-adv-x="484" 
d="M329 277l145 -277h-156l-55 116q-17 34 -23 56q-4 -16 -22 -56l-48 -116h-156l138 277l-142 277h159l49 -111q18 -40 22 -57q0 6 23 57l50 111h158z" />
    <glyph glyph-name="Y.small" horiz-adv-x="513" 
d="M323 0h-142v215l-171 339h159l60 -145q6 -12 11 -26t8.5 -24t3.5 -11q14 41 23 61l68 145h160l-180 -340v-214z" />
    <glyph glyph-name="Z.small" horiz-adv-x="450" 
d="M426 0h-398v106l181 273l33 45q-28 -2 -55 -2h-151v132h384v-107l-185 -280l-28 -38q22 3 47 3h172v-132z" />
    <glyph glyph-name="one.oldstyle" horiz-adv-x="433" 
d="M393 0h-323v130h90v269l-67 -35l-54 116l154 74h109v-424h91v-130z" />
    <glyph glyph-name="two.oldstyle" horiz-adv-x="538" 
d="M484 0h-444v114q146 51 220 119t74 132q0 29 -18 48t-51 19q-32 0 -52.5 -22.5t-20.5 -62.5q0 -20 4 -37l-133 -40q-13 39 -13 80q0 91 61.5 152.5t157.5 61.5q105 0 158 -55t53 -131q0 -79 -56 -143t-140 -103l45 4h155v-136z" />
    <glyph glyph-name="three.oldstyle" horiz-adv-x="515" 
d="M241 -118q-104 0 -161.5 45.5t-69.5 101.5l124 57q12 -37 41 -57t63 -20q38 0 65 23t27 64q0 34 -28 59.5t-79 25.5h-21v110q45 0 68.5 21.5t23.5 54.5q0 24 -15 40.5t-42 16.5q-25 0 -42 -19t-17 -51h-139q0 95 60 147.5t142 52.5q78 0 136.5 -46.5t58.5 -123.5
q0 -92 -72 -134q117 -40 117 -160q0 -99 -65.5 -153.5t-174.5 -54.5z" />
    <glyph glyph-name="four.oldstyle" horiz-adv-x="568" 
d="M433 -107h-143v107h-270v108l296 446h117v-431h85v-123h-85v-107zM290 123v191l-124 -191h124z" />
    <glyph glyph-name="five.oldstyle" horiz-adv-x="564" 
d="M467 424h-271v-102q42 20 98 20q117 0 182.5 -65t65.5 -154q0 -97 -69 -169t-189 -72q-96 0 -159.5 39t-91.5 97l119 71q18 -32 50.5 -54t75.5 -22q52 0 82 33.5t30 78.5q0 39 -29.5 71t-80.5 32q-64 0 -94 -46l-108 61v311h389v-130z" />
    <glyph glyph-name="six.oldstyle" horiz-adv-x="604" 
d="M306 111q48 0 77 34.5t29 83.5q0 48 -28 80.5t-77 32.5q-51 0 -79.5 -33t-28.5 -82q0 -50 28 -83t79 -33zM308 -10q-112 0 -178 77t-66 196q0 93 31 173t102.5 144.5t175.5 90.5l46 -123q-41 -10 -77.5 -28t-58 -37t-37.5 -36t-22 -28l-7 -11l2 -2q48 44 122 44
q93 0 151 -63.5t58 -155.5q0 -102 -67 -171.5t-175 -69.5z" />
    <glyph glyph-name="seven.oldstyle" horiz-adv-x="491" 
d="M301 -108h-148q0 262 157 526h-275v136h424v-111q-7 -10 -18 -27.5t-39.5 -75.5t-50 -118.5t-37.5 -151t-13 -178.5z" />
    <glyph glyph-name="eight.oldstyle" horiz-adv-x="523" 
d="M262 -10q-113 0 -174 59t-61 141q0 126 114 180q-68 46 -68 130q0 70 49 120.5t140 50.5q90 0 140 -50.5t50 -119.5q0 -85 -68 -131q112 -56 112 -179q0 -82 -61 -141.5t-173 -59.5zM262 110q47 0 72.5 26.5t25.5 66.5q0 41 -25.5 67.5t-72.5 26.5q-48 0 -74 -26.5
t-26 -67.5t26 -67t74 -26zM262 425q31 0 48.5 18.5t17.5 46.5t-17 46.5t-49 18.5t-49.5 -18t-17.5 -46t17.5 -47t49.5 -19z" />
    <glyph glyph-name="nine.oldstyle" horiz-adv-x="584" 
d="M288 443q-48 0 -77 -34.5t-29 -83.5q0 -48 28 -80.5t77 -32.5q51 0 79.5 33t28.5 82q0 50 -28 83t-79 33zM286 564q112 0 178 -77t66 -196q0 -93 -31 -173t-102.5 -144.5t-175.5 -90.5l-46 123q41 10 77.5 28t58 37t37.5 36t22 28l7 11l-2 2q-48 -44 -122 -44
q-93 0 -151 63.5t-58 155.5q0 102 67 171.5t175 69.5z" />
    <glyph glyph-name="zero.oldstyle" horiz-adv-x="614" 
d="M308 -9q-122 0 -205 82t-83 205q0 122 83 204t205 82t205.5 -82t83.5 -204t-83.5 -204.5t-205.5 -82.5zM308 119q65 0 105.5 45t40.5 114t-40.5 113.5t-105.5 44.5t-106 -44.5t-41 -113.5t41.5 -114t105.5 -45z" />
    <glyph glyph-name="Agrave.small" horiz-adv-x="578" 
d="M416 0l-34 96h-187l-33 -96h-152l199 554h160l199 -554h-152zM144 733l72 77l155 -145l-71 -77zM289 403q-12 -74 -55 -195h109q-41 116 -54 195z" />
    <glyph glyph-name="Aacute.small" horiz-adv-x="578" 
d="M416 0l-34 96h-187l-33 -96h-152l199 554h160l199 -554h-152zM337 800l72 -77l-156 -145l-71 77zM289 403q-12 -74 -55 -195h109q-41 116 -54 195z" />
    <glyph glyph-name="Acircumflex.small" horiz-adv-x="578" 
d="M416 0l-34 96h-187l-33 -96h-152l199 554h160l199 -554h-152zM221 598l-77 77l105 105h77l106 -105l-76 -77l-68 78zM289 403q-12 -74 -55 -195h109q-41 116 -54 195z" />
    <glyph glyph-name="Atilde.small" horiz-adv-x="578" 
d="M416 0l-34 96h-187l-33 -96h-152l199 554h160l199 -554h-152zM176 626l-59 76q42 52 110 52q23 0 70.5 -18.5t74.5 -18.5q24 0 55 28l62 -75q-21 -31 -46.5 -44t-64.5 -13q-27 0 -76 18.5t-72 18.5q-24 0 -54 -24zM289 403q-12 -74 -55 -195h109q-41 116 -54 195z" />
    <glyph glyph-name="Adieresis.small" horiz-adv-x="578" 
d="M416 0l-34 96h-187l-33 -96h-152l199 554h160l199 -554h-152zM127 682q0 28 19.5 48t48.5 20q28 0 48 -20t20 -48t-20 -47.5t-48 -19.5q-29 0 -48.5 19.5t-19.5 47.5zM314 682q0 28 20 48t48 20t48 -20t20 -48t-20 -47.5t-48 -19.5q-29 0 -48.5 19.5t-19.5 47.5zM289 403
q-12 -74 -55 -195h109q-41 116 -54 195z" />
    <glyph glyph-name="Aring.small" horiz-adv-x="578" 
d="M416 0l-34 96h-187l-33 -96h-152l199 554h160l199 -554h-152zM170 691q0 49 34.5 83.5t83.5 34.5t83.5 -34.5t34.5 -83.5t-34.5 -83.5t-83.5 -34.5t-83.5 34.5t-34.5 83.5zM289 403q-12 -74 -55 -195h109q-41 116 -54 195zM249 691q0 -16 11.5 -27.5t27.5 -11.5t27 11.5
t11 27.5t-11 27t-27 11t-27.5 -11t-11.5 -27z" />
    <glyph glyph-name="AE.small" horiz-adv-x="805" 
d="M156 0h-152l290 554h461v-130h-264v-74h203v-120h-203v-100h264v-130h-404v86h-148zM285 236l-21 -38h87v177q-29 -70 -66 -139z" />
    <glyph glyph-name="Ccedilla.small" horiz-adv-x="573" 
d="M219 -204l68 53q10 -12 24 -12q23 0 23 24q0 26 -24 26q-16 0 -23 -15l-63 28v111q-80 31 -127 103t-47 163q0 121 79.5 204t201.5 83q120 0 208 -98l-100 -95q-26 29 -49 43t-57 14q-59 0 -97.5 -42.5t-38.5 -108.5q0 -68 38 -109t98 -41q65 0 111 64l109 -83
q-85 -117 -221 -117q-10 0 -30 2v-43q14 6 29 6q49 0 76.5 -30t27.5 -71q0 -43 -30 -75t-83 -32q-69 0 -103 48z" />
    <glyph glyph-name="Egrave.small" horiz-adv-x="544" 
d="M484 130v-130h-404v554h404v-130h-264v-74h203v-120h-203v-100h264zM162 723l72 77l155 -145l-71 -77z" />
    <glyph glyph-name="Eacute.small" horiz-adv-x="544" 
d="M484 130v-130h-404v554h404v-130h-264v-74h203v-120h-203v-100h264zM313 800l72 -77l-156 -145l-71 77z" />
    <glyph glyph-name="Ecircumflex.small" horiz-adv-x="544" 
d="M484 130v-130h-404v554h404v-130h-264v-74h203v-120h-203v-100h264zM212 608l-77 77l105 105h77l106 -105l-76 -77l-68 78z" />
    <glyph glyph-name="Edieresis.small" horiz-adv-x="544" 
d="M484 130v-130h-404v554h404v-130h-264v-74h203v-120h-203v-100h264zM123 682q0 28 19.5 48t48.5 20q28 0 48 -20t20 -48t-20 -47.5t-48 -19.5q-29 0 -48.5 19.5t-19.5 47.5zM310 682q0 28 20 48t48 20t48 -20t20 -48t-20 -47.5t-48 -19.5q-29 0 -48.5 19.5t-19.5 47.5z
" />
    <glyph glyph-name="Igrave.small" horiz-adv-x="389" 
d="M329 0h-269v130h65v294h-65v130h269v-130h-64v-294h64v-130zM67 723l72 77l155 -145l-71 -77z" />
    <glyph glyph-name="Iacute.small" horiz-adv-x="389" 
d="M329 0h-269v130h65v294h-65v130h269v-130h-64v-294h64v-130zM238 800l72 -77l-156 -145l-71 77z" />
    <glyph glyph-name="Icircumflex.small" horiz-adv-x="408" 
d="M339 0h-269v130h65v294h-65v130h269v-130h-64v-294h64v-130zM137 598l-77 77l105 105h77l106 -105l-76 -77l-68 78z" />
    <glyph glyph-name="Idieresis.small" horiz-adv-x="443" 
d="M356 0h-269v130h65v294h-65v130h269v-130h-64v-294h64v-130zM60 682q0 28 20 48t48 20t48 -20t20 -48t-20 -47.5t-48 -19.5q-29 0 -48.5 19.5t-19.5 47.5zM247 682q0 28 19.5 48t48.5 20q28 0 48 -20t20 -48t-20 -47.5t-48 -19.5q-29 0 -48.5 19.5t-19.5 47.5z" />
    <glyph glyph-name="Eth.small" horiz-adv-x="614" 
d="M85 0v226h-45v108h45v220h191q140 0 214 -73t74 -203q0 -123 -66.5 -200.5t-191.5 -77.5h-221zM225 130h76q61 0 92 40t31 107q0 71 -34 109t-100 38h-65v-90h98v-108h-98v-96z" />
    <glyph glyph-name="Ntilde.small" horiz-adv-x="587" 
d="M507 554v-554h-135v105l-131 174l-32 52q3 -34 3 -61v-270h-132v554h131l136 -193q15 -22 27 -46v3q0 4 -0.5 10t-1 12.5t-0.5 14.5v14v185h135zM177 626l-59 76q42 52 110 52q23 0 70.5 -18.5t74.5 -18.5q7 0 13.5 1.5t11.5 3.5t10.5 6t8 6t6.5 6l5 5l62 -75
q-21 -31 -46.5 -44t-64.5 -13q-27 0 -76 18.5t-72 18.5q-24 0 -54 -24z" />
    <glyph glyph-name="Ograve.small" horiz-adv-x="677" 
d="M338 -9q-122 0 -205 82t-83 205q0 122 83 204t205 82t205.5 -82t83.5 -204t-83.5 -204.5t-205.5 -82.5zM338 119q65 0 105.5 45t40.5 114t-40.5 113.5t-105.5 44.5t-106 -44.5t-41 -113.5t41.5 -114t105.5 -45zM202 733l72 77l155 -145l-71 -77z" />
    <glyph glyph-name="Oacute.small" horiz-adv-x="677" 
d="M338 -9q-122 0 -205 82t-83 205q0 122 83 204t205 82t205.5 -82t83.5 -204t-83.5 -204.5t-205.5 -82.5zM338 119q65 0 105.5 45t40.5 114t-40.5 113.5t-105.5 44.5t-106 -44.5t-41 -113.5t41.5 -114t105.5 -45zM373 810l72 -77l-156 -145l-71 77z" />
    <glyph glyph-name="Otilde.small" horiz-adv-x="677" 
d="M338 -9q-122 0 -205 82t-83 205q0 122 83 204t205 82t205.5 -82t83.5 -204t-83.5 -204.5t-205.5 -82.5zM338 119q65 0 105.5 45t40.5 114t-40.5 113.5t-105.5 44.5t-106 -44.5t-41 -113.5t41.5 -114t105.5 -45zM212 621l-59 76q42 52 110 52q23 0 70.5 -18.5t74.5 -18.5
q24 0 55 28l62 -75q-21 -31 -46.5 -44t-64.5 -13q-27 0 -76 18.5t-72 18.5q-24 0 -54 -24z" />
    <glyph glyph-name="Odieresis.small" horiz-adv-x="677" 
d="M338 -9q-122 0 -205 82t-83 205q0 122 83 204t205 82t205.5 -82t83.5 -204t-83.5 -204.5t-205.5 -82.5zM338 119q65 0 105.5 45t40.5 114t-40.5 113.5t-105.5 44.5t-106 -44.5t-41 -113.5t41.5 -114t105.5 -45zM179 672q0 28 19.5 48t48.5 20q28 0 48 -20t20 -48
t-20 -47.5t-48 -19.5q-29 0 -48.5 19.5t-19.5 47.5zM366 672q0 28 20 48t48 20t48 -20t20 -48t-20 -47.5t-48 -19.5q-29 0 -48.5 19.5t-19.5 47.5z" />
    <glyph glyph-name="Oslash.small" horiz-adv-x="677" 
d="M338 -9q-122 0 -205 82t-83 205q0 122 83 204t205 82t205.5 -82t83.5 -204t-83.5 -204.5t-205.5 -82.5zM191 278q0 -64 35 -107l141 262q-14 3 -29 3q-65 0 -106 -44.5t-41 -113.5zM338 119q65 0 105.5 45t40.5 114q0 63 -35 106l-141 -262q14 -3 30 -3z" />
    <glyph glyph-name="Ugrave.small" horiz-adv-x="583" 
d="M291 122q74 0 74 108v324h144v-315q0 -124 -59 -186.5t-159 -62.5q-99 0 -158 62.5t-59 186.5v315h144v-324q0 -108 73 -108zM182 723l72 77l155 -145l-71 -77z" />
    <glyph glyph-name="Uacute.small" horiz-adv-x="583" 
d="M291 122q74 0 74 108v324h144v-315q0 -124 -59 -186.5t-159 -62.5q-99 0 -158 62.5t-59 186.5v315h144v-324q0 -108 73 -108zM335 810l72 -77l-156 -145l-71 77z" />
    <glyph glyph-name="Ucircumflex.small" horiz-adv-x="583" 
d="M291 122q74 0 74 108v324h144v-315q0 -124 -59 -186.5t-159 -62.5q-99 0 -158 62.5t-59 186.5v315h144v-324q0 -108 73 -108zM224 588l-77 77l105 105h77l106 -105l-76 -77l-68 78z" />
    <glyph glyph-name="Udieresis.small" horiz-adv-x="583" 
d="M291 122q74 0 74 108v324h144v-315q0 -124 -59 -186.5t-159 -62.5q-99 0 -158 62.5t-59 186.5v315h144v-324q0 -108 73 -108zM133 672q0 28 19.5 48t48.5 20q28 0 48 -20t20 -48t-20 -47.5t-48 -19.5q-29 0 -48.5 19.5t-19.5 47.5zM320 672q0 28 20 48t48 20t48 -20
t20 -48t-20 -47.5t-48 -19.5q-29 0 -48.5 19.5t-19.5 47.5z" />
    <glyph glyph-name="Yacute.small" horiz-adv-x="513" 
d="M323 0h-142v215l-171 339h159l60 -145q6 -12 11 -26t8.5 -24t3.5 -11q14 41 23 61l68 145h160l-180 -340v-214zM273 810l72 -77l-156 -145l-71 77z" />
    <glyph glyph-name="Thorn.small" horiz-adv-x="569" 
d="M222 0h-142v554h142v-70h79q107 0 166.5 -51t59.5 -154t-59.5 -153.5t-166.5 -50.5h-79v-75zM289 205q101 0 101 74q0 75 -101 75h-67v-149h67z" />
    <glyph glyph-name="g.alt" horiz-adv-x="592" 
d="M247 -9q-98 0 -155.5 75t-57.5 180q0 102 60 176.5t157 74.5q88 0 137 -61v52h140v-522q0 -105 -68 -177t-171 -72q-176 0 -235 136l112 66q35 -82 116 -82q48 0 79.5 34t31.5 96v106q-52 -82 -146 -82zM287 114q46 0 74.5 39t28.5 92q0 57 -27.5 93t-75.5 36
q-53 0 -83.5 -37t-30.5 -93q0 -55 31 -92.5t83 -37.5z" />
    <glyph glyph-name="Ocircumflex.small" horiz-adv-x="677" 
d="M338 -9q-122 0 -205 82t-83 205q0 122 83 204t205 82t205.5 -82t83.5 -204t-83.5 -204.5t-205.5 -82.5zM338 119q65 0 105.5 45t40.5 114t-40.5 113.5t-105.5 44.5t-106 -44.5t-41 -113.5t41.5 -114t105.5 -45zM271 598l-77 77l105 105h77l106 -105l-76 -77l-68 78z" />
    <glyph glyph-name="Lslash.small" horiz-adv-x="507" 
d="M40 213l-31 103l91 27v211h140v-170l109 33l30 -104l-139 -41v-142h224v-130h-364v230z" />
    <glyph glyph-name="Zcaron.small" horiz-adv-x="450" 
d="M426 0h-398v106l181 273l33 45q-28 -2 -55 -2h-151v132h384v-107l-185 -280l-28 -38q22 3 47 3h172v-132zM87 728l77 76l66 -78q2 2 9.5 10t12.5 14l46 54q12 -11 24.5 -24t28 -28.5l24.5 -24.5l-107 -105h-77q-17 18 -52 53t-52 53z" />
    <glyph glyph-name="OE.small" horiz-adv-x="817" 
d="M753 130v-130h-455q-125 0 -191.5 77.5t-66.5 200.5q0 130 74 203t214 73h425v-130h-264v-74h203v-120h-203v-100h264zM303 130h46v294h-35q-66 0 -100 -38t-34 -109q0 -67 31 -107t92 -40z" />
    <glyph glyph-name="parenleft.lower" horiz-adv-x="293" 
d="M165 -108q-93 106 -127 266t-0.5 318t126.5 257l110 -59q-70 -86 -95 -224.5t1 -277t94 -226.5z" />
    <glyph glyph-name="parenright.lower" horiz-adv-x="293" 
d="M128 -108l-109 54q68 88 94 226.5t1 277t-95 224.5l110 59q93 -99 126.5 -257t-0.5 -318t-127 -266z" />
    <glyph glyph-name="parenleft.small" horiz-adv-x="293" 
d="M165 -127q-93 106 -127 253.5t-0.5 293t126.5 244.5l110 -59q-107 -134 -106 -338t106 -340z" />
    <glyph glyph-name="parenright.small" horiz-adv-x="293" 
d="M127 -127l-109 54q105 136 106 340t-106 338l110 59q93 -99 126.5 -244.5t-0.5 -293t-127 -253.5z" />
    <glyph glyph-name="numbersign.small" horiz-adv-x="595" 
d="M244 0h-108v118h-100v108h100v110h-100v108h100v110h108v-110h107v110h108v-110h99v-108h-99v-110h99v-108h-99v-118h-108v118h-107v-118zM244 336v-110h107v110h-107z" />
    <glyph glyph-name="dollar.small" horiz-adv-x="501" 
d="M44 131l128 53q22 -58 76 -58q22 0 34.5 11.5t12.5 27.5q0 18 -24 32t-58.5 28t-69 32.5t-58.5 55t-24 86.5q0 61 37.5 102t95.5 56v73h112v-72q62 -14 123 -76l-98 -84q-15 16 -23.5 23.5t-22 14t-29.5 6.5q-21 0 -34 -10.5t-13 -26.5t18 -30t45 -24t59 -26t59 -34
t45 -50.5t18 -73.5q0 -66 -41 -112t-111 -60v-71h-112v72q-113 24 -145 135z" />
    <glyph glyph-name="percent.small" horiz-adv-x="654" 
d="M159 300q-55 0 -93.5 38t-38.5 93q0 56 38 94.5t94 38.5q55 0 93 -38.5t38 -94.5q0 -55 -38 -93t-93 -38zM159 383q20 0 34.5 14t14.5 34q0 21 -14.5 35.5t-34.5 14.5q-21 0 -35.5 -14.5t-14.5 -35.5q0 -20 14.5 -34t35.5 -14zM206 0h-137l369 554h137zM487 -10
q-55 0 -93.5 38t-38.5 93q0 56 38 94.5t94 38.5q55 0 93 -38.5t38 -94.5q0 -55 -38 -93t-93 -38zM487 73q20 0 34.5 14t14.5 34q0 21 -14.5 35.5t-34.5 14.5q-21 0 -35.5 -14.5t-14.5 -35.5q0 -20 14.5 -34t35.5 -14z" />
    <glyph glyph-name="Euro.small" horiz-adv-x="624" 
d="M565 466l-90 -87q-27 31 -52.5 46.5t-62.5 15.5q-82 0 -124 -71h180v-76h-203v-17q0 -14 1 -20h202v-76h-179q41 -67 123 -67q69 0 121 70l98 -76q-85 -117 -221 -117q-96 0 -168 52.5t-99 137.5h-60v76h45v20v17h-45v76h59q28 87 99.5 140.5t167.5 53.5q120 0 208 -98z
" />
    <glyph glyph-name="sterling.small" horiz-adv-x="476" 
d="M329 277v-80l-143 1q-1 -46 -9 -78h282v-120h-443v120h37q6 24 1 79h-38v80h33q-1 22 -1 77q0 97 59 152.5t145 55.5q103 0 160 -68t31 -203l-135 31q15 40 0.5 76t-55.5 36q-31 0 -48 -22.5t-17 -61.5v-74z" />
    <glyph glyph-name="cent.small" horiz-adv-x="455" 
d="M406 425l-84 -78q-19 21 -35 30.5t-40 9.5q-42 0 -69 -30t-27 -77q0 -48 27 -76.5t69 -28.5q47 0 78 45l91 -69q-51 -70 -120 -85v-66h-108v68q-71 19 -114 77t-43 135t43 135t114 77v62h108v-61q63 -15 110 -68z" />
    <glyph glyph-name="yen.small" horiz-adv-x="554" 
d="M348 0h-142v97h-114v98h114v52h-114v98h69l-104 209h159l38 -115q12 -35 23 -77q8 38 23 77l45 115h160l-110 -209h57v-98h-104v-52h104v-98h-104v-97z" />
    <glyph glyph-name="Scaron.small" horiz-adv-x="517" 
d="M54 131l128 53q22 -58 76 -58q22 0 34.5 11.5t12.5 27.5q0 18 -24 32t-58.5 28t-69 32.5t-58.5 55t-24 86.5q0 76 57 120.5t132 44.5q59 0 98.5 -19.5t80.5 -62.5l-98 -84q-15 16 -23.5 23.5t-22 14t-29.5 6.5q-21 0 -34 -10.5t-13 -26.5t18 -30t45 -24t59 -26t59 -34
t45 -50.5t18 -73.5q0 -79 -57 -128t-150 -49q-70 0 -125.5 34.5t-76.5 106.5zM112 699l77 76l66 -78q2 2 9.5 10t12.5 14l46 54l77 -77l-107 -105h-77q-17 18 -52 53t-52 53z" />
    <glyph glyph-name="M.alt" horiz-adv-x="835" 
d="M224 0h-144v700h145l188 -285l198 285h144v-700h-144v449l-198 -281l-189 278v-446z" />
    <glyph glyph-name="M.small.alt" horiz-adv-x="748" 
d="M224 0h-144v554h145l145 -222l154 222h144v-554h-144v303l-154 -218l-146 215v-300z" />
    </font>
</defs>
</svg>
